.
Авторизация | Регистрация
Хочешь лучшие торренты? Добавь свой email!
Добавить
» » Трамвай в другие города (1962) TVRip скачать торрент бесплатно




    Трамвай в другие города (1962) TVRip скачать торрент бесплатно

    Опубликовал: Админ | Дата: 3-09-2016, 05:01 | Просмотров: 32



    Детально о кино
    Русское название: Трамвай в другие города
    Создали в: 1962
    Категория жанра: детский, короткометражка
    Главный режиссер: Юлий Файт

    Актеры
    Андрюша Титов, Женя Богданов, Юрий Белов, Геннадий Шпаликов

    Сюжет фильма

    Два дошкольника решили, что ночью трамваи уезжают куда-то отдыхать и если сесть поздним вечером в трамвай, то можно уехать в другой город. В трамвае они встретились с различными людьми, и все оказывались интересными. Интересно было также наблюдать за жизнью большого города, сверкавшего вечерними огнями. На последней остановке приятели сошли и оказались на берегу какого-то водоёма...

    Создали в: СССР/Мосфильм
    Время просмотра: 00: 20: 34
    Перевод текста: оригинал
    Файл
    Качество фильма: TVRip
    Тип видео: AVI
    Информация о видео: XviD, 720x544 (4: 3), 25.000 fps, 2421 kbps, 0.247 bit/pixel
    Информация о звуке: русский, AC3 2.0, 48 kHz, 192 kbps
    MediaInfo
    Формат : AVI
    Формат/Информация : Audio Video Interleave
    Размер файла : 386 Мбайт
    Продолжительность : 20 м.
    Общий поток : 2622 Кбит/сек
    Программа кодирования : VirtualDubMod 1.5.10.3 | www.virtualdub-fr.org || (build 2550/release)
    Библиотека кодирования : VirtualDubMod build 2550/release
    Видео
    Идентификатор : 0
    Формат : MPEG-4 Visual
    Профиль формата : Advanced Simple@L5
    Параметр BVOP формата : 2
    Параметр QPel формата : Нет
    Параметр GMC формата : Без точки перехода
    Параметр матрицы формата : Default (MPEG)
    Идентификатор кодека : XVID
    Идентификатор кодека/Подсказка : XviD
    Продолжительность : 20 м.
    Битрейт : 2421 Кбит/сек
    Ширина : 720 пикселей
    Высота : 544 пикселя
    Соотношение сторон : 4: 3
    Частота кадров : 25, 000 кадров/сек
    Цветовое пространство : YUV
    Субдискретизация насыщенности : 4: 2: 0
    Битовая глубина : 8 бит
    Тип развёртки : Прогрессивная
    Метод сжатия : С потерями
    Бит/(Пиксели*Кадры) : 0.247
    Размер потока : 356 Мбайт (92%)
    Библиотека кодирования : XviD 1.2.1 (UTC 2008-12-04)
    Аудио
    Идентификатор : 1
    Формат : AC-3
    Формат/Информация : Audio Coding 3
    Расширение режима : CM (complete main)
    Параметр Endianness формата : Big
    Идентификатор кодека : 2000
    Продолжительность : 20 м.
    Вид битрейта : Постоянный
    Битрейт : 192 Кбит/сек
    Каналы : 2 канала
    Расположение каналов : Front: L R
    Частота : 48, 0 КГц
    Метод сжатия : С потерями
    Размер потока : 28, 2 Мбайт (7%)
    Выравнивание : Разделение по промежуткам
    Продолжительность промежутка : 40 мс. (1, 00 видеокадр)
    Время предзагрузки промежутка : 500 мс.
    Скриншоты

    Залил: makkaronni

    Онлайн видео Первый мститель: Противостояние


    Размер скачиваемого торрента: 385.81 MB (404549632 Bytes)

    Трамвай в другие города (1962) TVRip
    загрузка...
    Рейтинг →
     (голосов: 1, оценка 5/5, голосовать можно 1 раз )

    Другие торренты по теме:

  • Трамвай в другие города / 1962 / РУ / TVRip


    • Комментарии (0):

      Информация

      Информация

        Посетители, находящиеся в группе Гости, не могут оставлять комментарии в данной новости.

        ↓ Меню



        ↓ Опрос

        А Вы добавили сайт в закладки?
        Да
        Не


        Top 10 за месяц (Фильмы)