.
Авторизация | Регистрация
Хочешь лучшие торренты? Добавь свой email!
Добавить
» » Первый мститель: Противостояние / Captain America: Civil War (2016) BDRip 720p от Scarabey | iTunes скачать торрент бесплатно




    Первый мститель: Противостояние / Captain America: Civil War (2016) BDRip 720p от Scarabey | iTunes скачать торрент бесплатно

    Опубликовал: Админ | Дата: 3-09-2016, 05:00 | Просмотров: 49



    Снималось в: США, Германия
    Категория жанра: Фантастика, боевик, триллер, приключения
    Создали в: 2016
    Время просмотра: 02: 27: 41
    Перевод текста: Профессиональный (дублированный) - iTunes
    Субтитры подготовлены: русские, форсированные
    Главный режиссер: Энтони Руссо, Джо Руссо

    Актеры
    Крис Эванс, Роберт Дауни мл., Скарлетт Йоханссон, Себастьян Стэн, Энтони Маки, Дон Чидл, Джереми Реннер, Чедвик Боузман
    Описание: Мстители под руководством Капитана Америки оказываются участниками разрушительного инцидента, имеющего международный масштаб. Эти события заставляют правительство задуматься над тем, чтобы начать регулировать действия всех людей с особыми способностями, введя Акт о регистрации супергероев, вынуждая их раскрыть свои личности и работать на правительственные службы.Видя в этом законе нарушение гражданских прав и плевок во всё, что он верит, Стив Роджерс открыто восстаёт против нового режима, ведя за собой группу героев, поддерживающих его мнение. В свою же очередь, Тони Старк видит правильность в новом законе, и становится во главе героев, поддерживающих его. Всё это приводит к неизбежному расколу Мстителей, и гражданской войне между двумя сторонами. Сражаясь друг с другом, Старк и Роджерс не знают о том, что таинственный Барон Земо уже строит свои собственные планы, воспользовавшись расколом величайших героев Земли...
    Качество фильма видео: BDRip 720p- (DON)
    Тип видео видео: MKV
    Информация о видео: 1280х536, 23.976 fps, AVC ~4773 kbps avg
    Информация о звуке: 48 kHz, AC3 Dolby Digital, 3/2 (L, C, R, l, r) + LFE ch, ~384 kbps - дубляж
    Релиз подготовил:
    АНОНСЫ МОИХ РАЗДАЧ!



    МедиаИнфо

    Первый мститель ПротивостояниеCaptain_America_Civil_War_2016.720p_BDRip__scarabey.org.mkv
    Формат : Matroska
    Версия формата : Version 4/Version 2
    Размер файла : 5, 43 Гбайт
    Продолжительность : 2 ч. 27 м.
    Общий поток : 5262 Кбит/сек
    Название фильма : Captain.America.Civil.War.2016.720p.BluRay.DTS.x264-HR
    Дата кодирования : UTC 2016-09-01 16: 12: 27
    Программа кодирования : mkvmerge v6.1.0 (;Old Devil;) built on Mar 4 2013 09: 10: 42
    Библиотека кодирования : libebml v1.3.0 + libmatroska v1.4.0
    Обложка : Yes
    Attachments : cover.jpg/cover_land.jpg/small_cover.jpg/small_cover_land.jpg
    Видео
    Идентификатор : 1
    Формат : AVC
    Формат/Информация : Advanced Video Codec
    Профиль формата : High@L4.1
    Параметр CABAC формата : Да
    Параметр ReFrames формата : 12 кадров
    Идентификатор кодека : V_MPEG4/ISO/AVC
    Продолжительность : 2 ч. 27 м.
    Битрейт : 4773 Кбит/сек
    Ширина : 1280 пикселей
    Высота : 536 пикселей
    Соотношение сторон : 2, 40: 1
    Режим частоты кадров : Постоянный
    Частота кадров : 23, 976 (24000/1001) кадра/сек
    Цветовое пространство : YUV
    Субдискретизация насыщенности : 4: 2: 0
    Битовая глубина : 8 бит
    Тип развёртки : Прогрессивная
    Бит/(Пиксели*Кадры) : 0.290
    Размер потока : 4, 92 Гбайт (91%)
    Библиотека кодирования : x264 core 148 r2705+54 9f484c1 t_mod_Custom 8-bit@all X86
    Настройки программы : cabac=1/ref=12/deblock=1: -3: -3/analyse=0x3: 0x133/me=umh/subme=11/psy=1/fade_compensate=0.00/psy_rd=1.04: 0.00/mixed_ref=1/me_range=64/chroma_me=1/trellis=2/8x8dct=1/cqm=0/deadzone=21, 11/fast_pskip=0/chroma_qp_offset=-2/threads=17/lookahead_threads=2/sliced_threads=0/nr=0/decimate=0/interlaced=0/bluray_compat=0/constrained_intra=0/fgo=0/bframes=8/b_pyramid=2/b_adapt=2/b_bias=0/direct=3/weightb=1/open_gop=1/weightp=2/keyint=250/keyint_min=23/scenecut=40/intra_refresh=0/rc_lookahead=120/rc=crf/mbtree=0/crf=16.3000/qcomp=0.70/qpmin=0: 0: 0/qpmax=69: 69: 69/qpstep=4/vbv_maxrate=62500/vbv_bufsize=50000/crf_max=0.0/nal_hrd=none/filler=0/ip_ratio=1.30/pb_ratio=1.20/aq=3: 0.85/aq-sensitivity=10.00/aq-factor=1.00: 1.00: 1.00/aq2=0/aq3=0
    Язык : English
    Default : Да
    Forced : Нет
    Аудио
    Идентификатор : 2
    Формат : AC-3
    Формат/Информация : Audio Coding 3
    Расширение режима : CM (complete main)
    Параметр Endianness формата : Big
    Идентификатор кодека : A_AC3
    Продолжительность : 2 ч. 27 м.
    Вид битрейта : Постоянный
    Битрейт : 384 Кбит/сек
    Каналы : 6 каналов
    Расположение каналов : Front: L C R, Side: L R, LFE
    Частота : 48, 0 КГц
    Частота кадров : 31, 250 кадров/сек (1536 spf)
    Метод сжатия : С потерями
    Задержка видео : 1 с. 0 мс.
    Размер потока : 406 Мбайт (7%)
    Заголовок : Дубляж - iTunes
    Язык : Russian
    Default : Да
    Forced : Нет
    Текст
    Идентификатор : 3
    Формат : UTF-8
    Идентификатор кодека : S_TEXT/UTF8
    Идентификатор кодека/Информация : UTF-8 Plain Text
    Заголовок : Русские, форсированные
    Язык : Russian
    Default : Да
    Forced : Нет


    Онлайн видео Первый мститель: Противостояние


    Размер скачиваемого торрента: 5.43 GB (5828849359 Bytes)

    Первый мститель: Противостояние/Captain America: Civil War (2016) BDRip 720p от Scarabey | iTunes
    загрузка...
    Рейтинг →
     (голосов: 1, оценка 5/5, голосовать можно 1 раз )

    Другие торренты по теме:

  • OST - Капитан Америка: Первый Мститель / Captain America: The First Avenger (2011) MP3
  • Первый мститель / Captain America: The First Avenger (2011) BDRip 1080p от Youtracker | Лицензия
  • Первый мститель / Captain America: The First Avenger (2011) BDRip 720p от leonardo 59 Scarabey | Лицензия скачать через торрент бесплатно
  • Первый мститель: Другая война / Captain America: The Winter Soldier (2014) HD 1080p | Трейлер
  • Первый мститель: Другая война / Captain America: The Winter Soldier (2014) DCPrip | 3D | Трейлер скачать через торрент бесплатно
  • Первый мститель: Другая война / Captain America: The Winter Soldier (2014) DCPrip 2K | Трейлер скачать через торрент бесплатно
  • Первый мститель: Другая война (2014)
  • OST - Первый мститель: Другая война / Captain America: The Winter Soldier (2014) MP3


    • Комментарии (0):

      Информация

      Информация

        Посетители, находящиеся в группе Гости, не могут оставлять комментарии в данной новости.

        ↓ Меню



        ↓ Опрос

        А Вы добавили сайт в закладки?
        Да
        Не


        Top 10 за месяц (Фильмы)