.
Авторизация | Регистрация
Хочешь лучшие торренты? Добавь свой email!
Добавить
» » Фунт плоти / Pound Of Flesh (2015) HDRip от Portablius | L2 скачать торрент бесплатно




    Фунт плоти / Pound Of Flesh (2015) HDRip от Portablius | L2 скачать торрент бесплатно

    Опубликовал: Админ | Дата: 3-09-2016, 05:00 | Просмотров: 63



    Детально о кино
    Русское название: Фунт плоти
    Русское название в мировом прокате: Pound Of Flesh
    Создали в: 2015
    Категория жанра: боевик
    Главный режиссер: Эрни Барбараш
    Продюсер: Жан-Клод Ван Дамм, Джон Ралстон, Аки Алеонг, Шарлотта Питерс, Даррен Шалави, Брахим Ачаббаке, Джейсон Дж. Тобин, Кевин Ли, Темур Мамисашвили, Филипп Жоли

    Актеры
    Жан-Клод Ван Дамм, Даррен Шалави, Джон Ралстон, Джейсон Дж. Тобин, Кевин Ли, Шарлотта Питерс, Аки Алеонг, Темур Мамисашвили, Майк Лидер, Филипп Жоли

    Сюжет фильма
    Однажды ночью главный герой спасает женщину, но на следующее утро просыпается в номере отеля и обнаруживает, что лежит в ванной весь в крови и без одной почки…

    Снималось в: США
    Киностудия: ACE Film Company
    Время просмотра: 01: 44: 24
    Перевод текста: Любительский (двухголосый, закадровый)
    Субтитры: Нет
    Семпл
    Файл
    Кодек для видео: XviD
    Качество фильма: HDRip
    Информация о видео: 656x368 (1.78: 1), 23.976 fps, XviD build 73 ~865 kbps avg, 0.15 bit/pixel
    Информация о звуке: 48 kHz, MPEG Layer 3, 2 ch, ~128.00 kbps avg
    MediaInfo
    Общее
    Полное имя : Pound.Of.Flesh.2015.L2.HDRip.ot.Portablius.avi
    Формат : AVI
    Формат/Информация : Audio Video Interleave
    Размер файла : 749 Мбайт
    Продолжительность : 1 ч. 44 м.
    Общий поток : 1003 Кбит/сек
    Программа кодирования : VirtualDubMod 1.5.10.3 | www.virtualdub-fr.org || (build 2550/release)
    Библиотека кодирования : VirtualDubMod build 2550/release
    Видео
    Идентификатор : 0
    Формат : MPEG-4 Visual
    Профиль формата : Advanced Simple@L5
    Параметр BVOP формата : 1
    Параметр QPel формата : Нет
    Параметр GMC формата : Без точки перехода
    Параметр матрицы формата : Выборочная
    Идентификатор кодека : XVID
    Идентификатор кодека/Подсказка : XviD
    Продолжительность : 1 ч. 44 м.
    Битрейт : 865 Кбит/сек
    Ширина : 656 пикселей
    Высота : 368 пикселей
    Соотношение сторон : 16: 9
    Частота кадров : 23, 976 (23976/1000) кадра/сек
    Цветовое пространство : YUV
    Субдискретизация насыщенности : 4: 2: 0
    Битовая глубина : 8 бит
    Тип развёртки : Прогрессивная
    Метод сжатия : С потерями
    Бит/(Пиксели*Кадры) : 0.149
    Размер потока : 646 Мбайт (86%)
    Библиотека кодирования : XviD 73
    Аудио
    Идентификатор : 1
    Формат : MPEG Audio
    Версия формата : Version 1
    Профиль формата : Layer 3
    Идентификатор кодека : 55
    Идентификатор кодека/Подсказка : MP3
    Продолжительность : 1 ч. 44 м.
    Вид битрейта : Постоянный
    Битрейт : 128 Кбит/сек
    Каналы : 2 канала
    Частота : 48, 0 КГц
    Метод сжатия : С потерями
    Размер потока : 95, 6 Мбайт (13%)
    Выравнивание : Соединение по промежуткам
    Продолжительность промежутка : 42 мс. (1, 00 видеокадр)
    Время предзагрузки промежутка : 504 мс.
    Библиотека кодирования : LAME3.99r
    Залил: Evgen Portable

    Онлайн видео Фунт плоти


    Размер скачиваемого торрента: 748.67 MB (785033216 Bytes)


    Фунт плоти/Pound Of Flesh (2015) HDRip от Portablius | L2
    загрузка...
    Рейтинг →
     (голосов: 1, оценка 5/5, голосовать можно 1 раз )

    Другие торренты по теме:

  • Фунт плоти / Pound Of Flesh (2015) WEB-DLRip | L1
  • Фунт плоти / Pound Of Flesh (2015) WEB-DL 720p | L1
  • Фунт плоти / Pound Of Flesh (2015) WEBDLRip-AVC | L1
  • Фунт плоти / Pound Of Flesh (2015) WEB-DLRip от torrentfilm | L1
  • Фунт плоти / Pound Of Flesh (2015) WEB-DLRip | L1
  • Фунт плоти / Pound Of Flesh (2015) BDRip 720p | L2
  • Фунт плоти / Pound Of Flesh (2015) HDRip | L2
  • Фунт плоти / Pound Of Flesh (2015) HDRip-AVC | L2


    • Комментарии (0):

      Информация

      Информация

        Посетители, находящиеся в группе Гости, не могут оставлять комментарии в данной новости.

        ↓ Меню



        ↓ Опрос

        А Вы добавили сайт в закладки?
        Да
        Не


        Top 10 за месяц (Фильмы)