.
Авторизация | Регистрация
Хочешь лучшие торренты? Добавь свой email!
Добавить
» » Удивительная жизнь учителей / La Vraie vie des profs (2013) HDRip | P скачать торрент бесплатно




    Удивительная жизнь учителей / La Vraie vie des profs (2013) HDRip | P скачать торрент бесплатно

    Опубликовал: Админ | Дата: 2-09-2016, 05:02 | Просмотров: 132



    Детально о кино
    Русское название: Удивительная жизнь учителей/Реальная жизнь учителей
    Русское название в мировом прокате: La Vraie vie des profs
    Создали в: 2013
    Категория жанра: комедия
    Главный режиссер: Эммануэль Клотц, Альберт Перейра-Лазаро

    Актеры
    Люсьен Жан-Батист, Одри Флеро, Эмир Сегир, Сами Бузид, Маива Арну, Энцо Валльехо-Челотто, Виктуар Пупон, Лорен Фернандез, Паула Карвальо, Катрин Осмален, Венсан Дезанья, Дэвид Форе, Жюльен Гросси

    Сюжет фильма

    Альберт и JM, два ученика пятого класса, за свое художество на скульптуре, которая находилась перед школой, были наказаны директором. По мнению директора, они свое мастерство должны проявлять в школьной стенгазете. Но это решение было воспринято главными героями как унижение. После короткой дискуссии с постоянными членами редколлегии было решено изменить формат газеты. А именно уйти от бумажной волокиты и организовать специальный сайт, на котором отображать частную жизнь своих учителей. Для воплощения в жизнь этой идеи главным героям придется не только отслеживать и снимать на телефон личную жизнь учителей, но и даже копаться в мусорных бачках.

    Создали в: Франция/2.4.7. Films, France 2 Cin?ma, Canal+
    Время просмотра: 01: 41: 21
    Перевод текста: профессиональный многоголосый закадровый
    Файл
    Качество фильма: HDRip
    Тип видео: AVI
    Информация о видео: XviD, 720x304 (2.35: 1), 23.976 fps, 1665 kbps, 0.317 bit/pixel
    Информация о звуке: русский, AC3 5.1, 48 kHz, 384 kbps
    MediaInfo
    Формат : AVI
    Формат/Информация : Audio Video Interleave
    Размер файла : 1, 46 Гбайт
    Продолжительность : 1 ч. 41 м.
    Общий поток : 2058 Кбит/сек
    Программа кодирования : VirtualDubModRus 1.5.10.2 (build 2542/release)
    Библиотека кодирования : VirtualDubMod build 2542/release
    Видео
    Идентификатор : 0
    Формат : MPEG-4 Visual
    Профиль формата : Advanced Simple@L5
    Параметр BVOP формата : 2
    Параметр QPel формата : Нет
    Параметр GMC формата : Без точки перехода
    Параметр матрицы формата : Default (MPEG)
    Идентификатор кодека : XVID
    Идентификатор кодека/Подсказка : XviD
    Продолжительность : 1 ч. 41 м.
    Битрейт : 1665 Кбит/сек
    Ширина : 720 пикселей
    Высота : 304 пикселя
    Соотношение сторон : 2, 35: 1
    Частота кадров : 23, 976 кадра/сек
    Цветовое пространство : YUV
    Субдискретизация насыщенности : 4: 2: 0
    Битовая глубина : 8 бит
    Тип развёртки : Прогрессивная
    Метод сжатия : С потерями
    Бит/(Пиксели*Кадры) : 0.317
    Размер потока : 1, 18 Гбайт (81%)
    Библиотека кодирования : XviD 1.2.1 (UTC 2008-12-04)
    Аудио
    Идентификатор : 1
    Формат : AC-3
    Формат/Информация : Audio Coding 3
    Расширение режима : CM (complete main)
    Параметр Endianness формата : Big
    Идентификатор кодека : 2000
    Продолжительность : 1 ч. 41 м.
    Вид битрейта : Постоянный
    Битрейт : 384 Кбит/сек
    Каналы : 6 каналов
    Расположение каналов : Front: L C R, Side: L R, LFE
    Частота : 48, 0 КГц
    Метод сжатия : С потерями
    Размер потока : 278 Мбайт (19%)
    Выравнивание : Разделение по промежуткам
    Продолжительность промежутка : 42 мс. (1, 00 видеокадр)
    Время предзагрузки промежутка : 500 мс.
    Скриншоты

    Залил: makkaronni

    Онлайн видео Удивительная жизнь учителей


    Размер скачиваемого торрента: 1.46 GB (1564743680 Bytes)

    Удивительная жизнь учителей/La Vraie vie des profs (2013) HDRip | P
    загрузка...
    Рейтинг →
     (голосов: 1, оценка 3/5, голосовать можно 1 раз )

    Другие торренты по теме:

  • Жека (Григорьев Евгений) - Удивительная жизнь
  • Жека (Евгений Григорьев) - Удивительная жизнь (2014) FLAC
  • Удивительная жизнь учителей / La Vraie vie des profs (2013) BDRip 720p | P


    • Комментарии (0):

      Информация

      Информация

        Посетители, находящиеся в группе Гости, не могут оставлять комментарии в данной новости.

        ↓ Меню



        ↓ Опрос

        А Вы добавили сайт в закладки?
        Да
        Не


        Top 10 за месяц (Фильмы)