.
Авторизация | Регистрация
Хочешь лучшие торренты? Добавь свой email!
Добавить
» » Дюна / Dune (2000) BDRip от Koenig | P скачать торрент бесплатно




    Дюна / Dune (2000) BDRip от Koenig | P скачать торрент бесплатно

    Опубликовал: Админ | Дата: 2-09-2016, 05:01 | Просмотров: 71



    Детально о кино
    Русское название: Дюна
    Русское название в мировом прокате: Dune
    Создали в: 2000
    Категория жанра: фантастика, фэнтези, драма, приключения
    Главный режиссер: Джон Харрисон

    Актеры
    Уильям Хёрт, Алек Ньюман, Саския Ривз, П.Х. Мориарти, Иэн МакНис, Мэтт Кислар, Ласло И. Киш, Джанкарло Джаннини, Джули Кокс, Уве Оксенкнехт, Джеймс Уотсон, Роберт Расселл, Лаура Бертон, Жан Унгер, Мирослав Таборски, Барбора Кодетова, Карел Добры, Сюзанна Гейслерова, Джейкоб Шварц, Клотильда Ле Гранд, Филип Ленковски

    Сюжет фильма

    Арракис… Дюна… Бесплодная пустыня Империи и самая ценная планета в космосе. Поскольку здесь и только здесь была открыта специя. Без нее в Империи не будет торговли. Не будет цивилизации. Арракис… Дюна… родина специи. Величайшее сокровище Вселенной. Тот кто владеет ею, владеет судьбой.

    Снималось в: США, Германия, Канада, Италия
    Киностудия: Milk Honey Pictures, Evision, New Amsterdam Entertainment
    Время просмотра: 3 х ~ 01: 35: 30
    Перевод текста: Профессиональный многоголосый
    Файл
    Качество фильма: BDRip(Dune 2000.BD_Remux 1080P)
    Информация о видео: XviD, ~ 1700 Кбит/с, 720x400, 24 кадр/с
    Информация о звуке: AC3, 6 ch, 448 Кбит/с
    Содержание
    Эпизод 1: В огромной империи могущественная гильдия контролирует свою монополию на передвижение по космосу. Это возможно только с помощью пряности, редкой субстанции, выращиваемой гигантскими песчаными червями в жарких пустынях Арракиса. Благородный Герцог и враждебный Барон начинают бескомпромиссное сражение за царственный Арракис.
    Эпизод 2: Отгремели битвы за Арракис, и во главе песчанной провинции встал племянник кровавого Барона, который сразу решает устанавливать свои порядки с помощью железа. Изгнанный Герцог становится народным вождем, и, пользуясь своими невероятными способностями и благородным происхождением, возглавляет новый крестовый поход против черных сил.
    Эпизод 3: Черная туча космических кораблей прибыла на пустынную планету Арракис. Империя решила нанести удар по Герцогу и возглавляемым им войскам, чтобы заполучить полный контроль над редкой субстанцией. Герцог должен пройти последние испытания и раскрыть тайные карты своей судьбы
    MediaInfo
    Общее
    Полное имя : Dune.2000.BDRipDune.2000.P2.BDRip.avi
    Формат : AVI
    Формат/Информация : Audio Video Interleave
    Размер файла : 1, 45 Гбайт
    Продолжительность : 1 ч. 36 м.
    Общий поток : 2151 Кбит/сек
    Программа кодирования : VirtualDubMod 1.5.10.2 (build 2540/release)
    Библиотека кодирования : VirtualDubMod build 2540/release
    Видео
    Идентификатор : 0
    Формат : MPEG-4 Visual
    Профиль формата : Advanced Simple@L5
    Параметр BVOP формата : 1
    Параметр QPel формата : Нет
    Параметр GMC формата : Без точки перехода
    Параметр матрицы формата : Default (MPEG)
    Идентификатор кодека : XVID
    Идентификатор кодека/Подсказка : XviD
    Продолжительность : 1 ч. 36 м.
    Битрейт : 1694 Кбит/сек
    Ширина : 720 пикселей
    Высота : 400 пикселей
    Соотношение сторон : 16: 9
    Частота кадров : 24, 000 кадра/сек
    Цветовое пространство : YUV
    Субдискретизация насыщенности : 4: 2: 0
    Битовая глубина : 8 бит
    Тип развёртки : Прогрессивная
    Метод сжатия : С потерями
    Бит/(Пиксели*Кадры) : 0.245
    Размер потока : 1, 14 Гбайт (79%)
    Библиотека кодирования : XviD 1.2.0.dev47 (UTC 2006-11-01)
    Аудио
    Идентификатор : 1
    Формат : AC-3
    Формат/Информация : Audio Coding 3
    Расширение режима : CM (complete main)
    Параметр Endianness формата : Big
    Идентификатор кодека : 2000
    Продолжительность : 1 ч. 36 м.
    Вид битрейта : Постоянный
    Битрейт : 448 Кбит/сек
    Каналы : 6 каналов
    Расположение каналов : Front: L C R, Side: L R, LFE
    Частота : 48, 0 КГц
    Частота кадров : 31, 250 кадров/сек (1536 spf)
    Метод сжатия : С потерями
    Размер потока : 309 Мбайт (21%)
    Выравнивание : Разделение по промежуткам
    Продолжительность промежутка : 42 мс. (1, 00 видеокадр)
    Время предзагрузки промежутка : 500 мс.
    Скриншоты

    Залил: Koenig602
    Размер скачиваемого торрента: 4.35 GB (4670115840 Bytes)

    Дюна/Dune (2000) BDRip от Koenig | P
    загрузка...
    Рейтинг →
     (голосов: 1, оценка 5/5, голосовать можно 1 раз )

    Другие торренты по теме:

  • Дюна / Dune (1984) BDRip-AVC
  • Дюна / Dune (1984) BDRip-AVC от MediaClub | P2 | Расширенная версия
  • Дюна / Dune (1984) BDRip 1080p от MediaClub | P2 | Расширенная версия
  • Дюна / Dune (1984) BDRip 720p от MediaClub | P2 | Расширенная версия
  • Дюна / Dune (1984) HDRip от AleksSin | P2 | Расширенная версия


    • Комментарии (0):

      Информация

      Информация

        Посетители, находящиеся в группе Гости, не могут оставлять комментарии в данной новости.

        ↓ Меню



        ↓ Опрос

        А Вы добавили сайт в закладки?
        Да
        Не


        Top 10 за месяц (Фильмы)