.
Авторизация | Регистрация
Хочешь лучшие торренты? Добавь свой email!
Добавить
» » Крутые меры / Bastille Day (2016) BDRemux 1080p от ExKinoRay | A скачать торрент бесплатно




    Крутые меры / Bastille Day (2016) BDRemux 1080p от ExKinoRay | A скачать торрент бесплатно

    Опубликовал: Админ | Дата: 1-09-2016, 05:00 | Просмотров: 253



    Детально о кино
    Русское название: Крутые меры
    Русское название в мировом прокате: Bastille Day
    Создали в: 2016
    Категория жанра: Боевик, драма
    Главный режиссер: Джеймс Уоткинс

    Актеры
    Идрис Эльба, Ричард Мэдден, Келли Райлли, Шарлотта Ле Бон, Анатол Юсеф, Хорхе Леон Мартинес, Карл Фаррер, Хосе Гарсиа, Александр Купер, Эрик Эбони
    О фильме:
    Ловкий карманник Майкл Мэйсон привлекает внимание полиции и спецслужб, когда крадет сумку, содержащую гораздо больше, чем просто бумажник. На его след выходит дерзкий и резкий спецагент ЦРУ Шон Брайар. Вдвоем они становятся мишенью тайной преступной организации и в течение суток должны вывести злоумышленников на чистую воду.

    Снималось в: Великобритания, Франция, США
    Киностудия: Canal+
    Время просмотра: 01: 31: 48
    Перевод текста: Авторский одноголосый (закадровый) | Дмитрий Есарев
    Файл
    Кодек для видео: MPEG-4
    Качество фильма: BDRemux 1080p
    Информация о видео: 1920x1080, 24.8 Mbit/s, 24.000 fps
    Информация о звуке:
    Информация о звуке #01: 48 kHz, DTS-HD MA, 7.1, 5153 Kbps | Авторский одноголосый (закадровый) | Дмитрий Есарев |
    Информация о звуке #02: 48 kHz, AC3, 5.1, 640 Kbps | Авторский одноголосый (закадровый) | Дмитрий Есарев |
    Информация о звуке #03: 48 kHz, TrueHD, 7.1, 4630 kbps | Оригинал |
    Субтитры: Английские

    MI
    General
    Unique ID : 236825848290934133101421879715660408125 (0xB22AFFD100154C6A84243BF1A775A53D)
    Complete name : G: VideoНовая папка (2)Bastille.Day.2016.AVO.BDREMUX.1080p.ExKinoRay.mkv
    Format : Matroska
    Format version : Version 4/Version 2
    File size : 22.7 GiB
    Duration : 1 h 32 min
    Overall bit rate mode : Variable
    Overall bit rate : 35.2 Mb/s
    Movie name : Bastille.Day.2016.AVO.BDREMUX.1080p.ExKinoRay
    Encoded date : UTC 2016-08-31 23: 14: 07
    Writing application : mkvmerge v8.3.0 (;Over the Horizon;) 64bit
    Writing library : libebml v1.3.1 + libmatroska v1.4.2
    Video
    ID : 1
    Format : AVC
    Format/Info : Advanced Video Codec
    Format profile : High@L4.1
    Format settings, CABAC : Yes
    Format settings, ReFrames : 4 frames
    Codec ID : V_MPEG4/ISO/AVC
    Duration : 1 h 31 min
    Bit rate mode : Variable
    Bit rate : 24.8 Mb/s
    Maximum bit rate : 28.0 Mb/s
    Width : 1 920 pixels
    Height : 1 080 pixels
    Display aspect ratio : 16: 9
    Frame rate mode : Constant
    Frame rate : 24.000 FPS
    Color space : YUV
    Chroma subsampling : 4: 2: 0
    Bit depth : 8 bits
    Scan type : Progressive
    Bits/(Pixel*Frame) : 0.499
    Stream size : 15.9 GiB (70%)
    Title : build by ***селезень***
    Language : English
    Default : Yes
    Forced : No
    Audio #1
    ID : 2
    Format : DTS
    Format/Info : Digital Theater Systems
    Format profile : MA/Core
    Mode : 16
    Format settings, Endianness : Big
    Codec ID : A_DTS
    Duration : 1 h 32 min
    Bit rate mode : Variable/Constant
    Bit rate : 5 153 kb/s/1 509 kb/s
    Channel(s) : 8 channels/6 channels
    Channel positions : Front: L C R, Side: L R, Back: L R, LFE/Front: L C R, Side: L R, LFE
    Sampling rate : 48.0 kHz
    Frame rate : 93.750 FPS (512 spf)
    Bit depth : 24 bits
    Compression mode : Lossless/Lossy
    Stream size : 3.32 GiB (15%)
    Title : AVO-DTS-HD MA (D.ESAREV
    Language : Russian
    Default : Yes
    Forced : No
    Audio #2
    ID : 3
    Format : AC-3
    Format/Info : Audio Coding 3
    Mode extension : CM (complete main)
    Format settings, Endianness : Big
    Codec ID : A_AC3
    Duration : 1 h 32 min
    Bit rate mode : Constant
    Bit rate : 640 kb/s
    Channel(s) : 6 channels
    Channel positions : Front: L C R, Side: L R, LFE
    Sampling rate : 48.0 kHz
    Frame rate : 31.250 FPS (1536 spf)
    Compression mode : Lossy
    Stream size : 422 MiB (2%)
    Title : AVO-AC3 D.ESAREV
    Language : Russian
    Default : No
    Forced : No
    Audio #3
    ID : 4
    Format : Atmos/TrueHD
    Codec ID : A_TRUEHD
    Duration : 1 h 32 min
    Bit rate mode : Variable
    Bit rate : 4 630 kb/s
    Maximum bit rate : 8 844 kb/s
    Channel(s) : Object Based/8 channels
    Channel positions : Object Based/Front: L C R, Side: L R, Back: L R, LFE
    Sampling rate : /48.0 kHz
    Frame rate : 1 200.000 FPS (40 spf)
    Compression mode : Lossless
    Stream size : 2.98 GiB (13%)
    Title : Original
    Language : English
    Default : No
    Forced : No
    Text #1
    ID : 5
    Format : UTF-8
    Codec ID : S_TEXT/UTF8
    Codec ID/Info : UTF-8 Plain Text
    Duration : 1 h 28 min
    Bit rate : 35 b/s
    Count of elements : 651
    Stream size : 22.9 KiB (0%)
    Title : Full
    Language : English
    Default : No
    Forced : No
    Text #2
    ID : 6
    Format : UTF-8
    Codec ID : S_TEXT/UTF8
    Codec ID/Info : UTF-8 Plain Text
    Duration : 1 h 28 min
    Bit rate : 38 b/s
    Count of elements : 762
    Stream size : 24.8 KiB (0%)
    Title : SDH
    Language : English
    Default : No
    Forced : No
    Menu
    00: 00: 00.000 : en: 00: 00: 00.000
    00: 08: 06.625 : en: 00: 08: 06.625
    00: 16: 39.833 : en: 00: 16: 39.833
    00: 24: 20.625 : en: 00: 24: 20.625
    00: 33: 04.625 : en: 00: 33: 04.625
    00: 41: 03.625 : en: 00: 41: 03.625
    00: 48: 37.625 : en: 00: 48: 37.625
    00: 57: 03.417 : en: 00: 57: 03.417
    01: 07: 59.000 : en: 01: 07: 59.000
    01: 16: 54.625 : en: 01: 16: 54.625
    01: 21: 43.000 : en: 01: 21: 43.000
    01: 25: 26.833 : en: 01: 25: 26.833
    Скриншоты

    Релиз подготовил: Автор релиза:

    Онлайн видео Крутые меры


    Размер скачиваемого торрента: 22.67 GB (24343033265 Bytes)

    Крутые меры/Bastille Day (2016) BDRemux 1080p от ExKinoRay | A
    загрузка...
    Рейтинг →
     (голосов: 1, оценка 5/5, голосовать можно 1 раз )

    Другие торренты по теме:

  • Крутые меры / Bastille Day (2016) HDRip | L1
  • Крутые меры / Bastille Day (2016) BDRip 1080p | L
  • Крутые меры / Bastille Day / 2016 / ЛО / HDRip
  • Крутые меры / Bastille Day / 2016 / ЛО / BDRip (720p)
  • Крутые меры / Bastille Day / 2016 / ПМ / HDRip
  • Крутые меры / Bastille Day / 2016 / ЛО / Blu-Ray Remux (1080p)
  • Крутые меры / Bastille Day (2016) BDRip 720p от ExKinoRay | A
  • Крутые меры / Bastille Day (2016) BDRip от MegaPeer | A


    • Комментарии (0):

      Информация

      Информация

        Посетители, находящиеся в группе Гости, не могут оставлять комментарии в данной новости.

        ↓ Меню



        ↓ Опрос

        А Вы добавили сайт в закладки?
        Да
        Не


        Top 10 за месяц (Фильмы)