.
Авторизация | Регистрация
Хочешь лучшие торренты? Добавь свой email!
Добавить
» » Звёзды на крыльях (1955) SATRip от New-Team скачать торрент бесплатно




    Звёзды на крыльях (1955) SATRip от New-Team скачать торрент бесплатно

    Опубликовал: Админ | Дата: 31-08-2016, 18:26 | Просмотров: 70



    Снималось в: СССР
    Создали в: Киностудия им. А.Довженко
    Категория жанра: драма
    Создали в: 1955
    Время просмотра: 01: 16: 24
    Перевод текста: Не требуется
    Субтитры подготовлены: нет
    Оригинальная аудиодорожка: русский
    Главный режиссер: Исаак Шмарук

    Актеры

    Лев Фричинский, Вячеслав Тихонов, Юрий Боголюбов, Александр Антонов, Валентина Куценко, Лариса Кронберг, Константин Барташевич, Александр Холодков, Юрий Тимошенко...
    Полный список актёров
    Описание:
    Авиаучилище. Будущие офицеры эскадрильи реактивных самолётов заняты практической учёбой. При выполнении учебного задания курсант Коренюк нарушает лётную дисциплину. Лётчик-инструктор, считая Коренюка талантливым курсантом, прощает ему этот проступок. Когда же во время очередного учебного полёта Коренюк пикирует на рыболовецкое судно, вину берёт на себя находящийся в кабине курсант Букреев. Букреева арестовывают на десять суток…



    Источник: DVB
    Качество фильма видео: SATRip
    Тип видео видео: AVI
    Информация о видео: 704x528 (4: 3), 25 fps, XviD ~ 1841 kbps avg, 0.198 bit/pixel
    Информация о звуке: 48 kHz, Dolby Digital AC3 2.0, 192 kbps
    Раздача от:
    MediaInfo

    Общее
    Полное имя : Zvyozdy.na.krylyah.1955.SATRip_New-team_by_AVP_Studio.avi
    Формат : AVI
    Формат/Информация : Audio Video Interleave
    Размер файла : 1, 09 Гбайт
    Продолжительность : 1 ч. 16 м.
    Общий поток : 2042 Кбит/сек
    Программа кодирования : VirtualDubMod 1.5.10.3 | www.virtualdub-fr.org || (build 2550/release)
    Библиотека кодирования : VirtualDubMod build 2550/release
    Видео
    Идентификатор : 0
    Формат : MPEG-4 Visual
    Профиль формата : Advanced Simple@L5
    Параметр BVOP формата : 1
    Параметр QPel формата : Нет
    Параметр GMC формата : Без точки перехода
    Параметр матрицы формата : Выборочная
    Идентификатор кодека : XVID
    Идентификатор кодека/Подсказка : XviD
    Продолжительность : 1 ч. 16 м.
    Битрейт : 1841 Кбит/сек
    Ширина : 704 пикселя
    Высота : 528 пикселей
    Соотношение сторон : 4: 3
    Частота кадров : 25, 000 кадров/сек
    Цветовое пространство : YUV
    Субдискретизация насыщенности : 4: 2: 0
    Битовая глубина : 8 бит
    Тип развёртки : Прогрессивная
    Метод сжатия : С потерями
    Бит/(Пиксели*Кадры) : 0.198
    Размер потока : 1006 Мбайт (90%)
    Библиотека кодирования : XviD 1.2.1 (UTC 2008-12-04)
    Аудио
    Идентификатор : 1
    Формат : AC-3
    Формат/Информация : Audio Coding 3
    Расширение режима : CM (complete main)
    Параметр Endianness формата : Big
    Идентификатор кодека : 2000
    Продолжительность : 1 ч. 16 м.
    Вид битрейта : Постоянный
    Битрейт : 192 Кбит/сек
    Каналы : 2 канала
    Расположение каналов : Front: L R
    Частота : 48, 0 КГц
    Частота кадров : 31, 250 кадров/сек (1536 spf)
    Метод сжатия : С потерями
    Размер потока : 105 Мбайт (9%)
    Выравнивание : Разделение по промежуткам
    Продолжительность промежутка : 40 мс. (1, 00 видеокадр)
    Время предзагрузки промежутка : 500 мс

    Скриншоты



    Залил: AVPStudio

    Онлайн видео Звёзды на крыльях (1955) SATRip от New


    Размер скачиваемого торрента: 1.09 GB (1170399232 Bytes)

    Звёзды на крыльях (1955) SATRip от New-Team
    загрузка...
    Рейтинг →
     (голосов: 1, оценка 4/5, голосовать можно 1 раз )

    Другие торренты по теме:

  • Звёзды на крыльях (1955) SATRip от New-Team


    • Комментарии (0):

      Информация

      Информация

        Посетители, находящиеся в группе Гости, не могут оставлять комментарии в данной новости.

        ↓ Меню



        ↓ Опрос

        А Вы добавили сайт в закладки?
        Да
        Не


        Top 10 за месяц (Фильмы)