.
Авторизация | Регистрация
Хочешь лучшие торренты? Добавь свой email!
Добавить
» » Земля и люди (1955) SATRip от New-Team скачать торрент бесплатно




    Земля и люди (1955) SATRip от New-Team скачать торрент бесплатно

    Опубликовал: Админ | Дата: 31-08-2016, 05:01 | Просмотров: 65



    Снималось в: СССР
    Создали в: Киностудия им. Горького
    Категория жанра: драма
    Создали в: 1955
    Время просмотра: 01: 38: 32
    Перевод текста: Не требуется
    Субтитры подготовлены: нет
    Оригинальная аудиодорожка: русский
    Главный режиссер: Станислав Ростоцкий

    Актеры

    Алексей Егоров, Елена Батенина, Пётр Чернов, Владимир Иванов, Римма Шорохова, Владимир Ратомский, Пётр Алейников, Григорий Белов, Иван Кузнецов, Борис Ситко, Михаил Пуговкин, Анатолий Кубацкий, Вера Алтайская, Валентина Телегина, Светлана Харитонова, Евгений Гуров, Николай Граббе, Евгений Кудряшёв, Пётр Константинов...
    Полный список актёров
    Описание:
    1953 год. Председателю колхоза Новая жизнь Самоварову, консерватору и перестраховщику, приходится не по душе молодой агроном-новатор Шуров. В разгар посевной кампании Самоваров запрещает Шурову сев пшеницы новым методом. Однако Шуров, видя всю пагубность распоряжения председателя, решает поступить по-своему. С помощью бригадира Алёши Пшеничкина, старого хлебороба Терентия Петровича и студентки-практикантки Тоси Ельниковой он производит сев пшеницы по взлущенной земле. Узнав об этом, Самоваров жалуется в районный центр на незаконные действия агронома. Прокуратура начинает следствие…



    Источник: DVB
    Качество фильма видео: SATRip
    Тип видео видео: AVI
    Информация о видео: 688x512 (4: 3), 25 fps, XviD ~ 1920 kbps avg, 0.218 bit/pixel
    Информация о звуке: 48 kHz, Dolby Digital AC3 2.0, 192 kbps
    Раздача от:
    MediaInfo

    Общее
    Полное имя : Zemlya.i.lyudi.1955.SATRip_New-team_by_AVP_Studio.avi
    Формат : AVI
    Формат/Информация : Audio Video Interleave
    Размер файла : 1, 46 Гбайт
    Продолжительность : 1 ч. 38 м.
    Общий поток : 2122 Кбит/сек
    Программа кодирования : VirtualDubMod 1.5.10.3 | www.virtualdub-fr.org || (build 2550/release)
    Библиотека кодирования : VirtualDubMod build 2550/release
    Видео
    Идентификатор : 0
    Формат : MPEG-4 Visual
    Профиль формата : Advanced Simple@L5
    Параметр BVOP формата : 1
    Параметр QPel формата : Нет
    Параметр GMC формата : Без точки перехода
    Параметр матрицы формата : Выборочная
    Идентификатор кодека : XVID
    Идентификатор кодека/Подсказка : XviD
    Продолжительность : 1 ч. 38 м.
    Битрейт : 1920 Кбит/сек
    Ширина : 688 пикселей
    Высота : 512 пикселей
    Соотношение сторон : 4: 3
    Частота кадров : 25, 000 кадров/сек
    Цветовое пространство : YUV
    Субдискретизация насыщенности : 4: 2: 0
    Битовая глубина : 8 бит
    Тип развёртки : Прогрессивная
    Метод сжатия : С потерями
    Бит/(Пиксели*Кадры) : 0.218
    Размер потока : 1, 32 Гбайт (90%)
    Библиотека кодирования : XviD 1.2.1 (UTC 2008-12-04)
    Аудио
    Идентификатор : 1
    Формат : AC-3
    Формат/Информация : Audio Coding 3
    Расширение режима : CM (complete main)
    Параметр Endianness формата : Big
    Идентификатор кодека : 2000
    Продолжительность : 1 ч. 38 м.
    Вид битрейта : Постоянный
    Битрейт : 192 Кбит/сек
    Каналы : 2 канала
    Расположение каналов : Front: L R
    Частота : 48, 0 КГц
    Частота кадров : 31, 250 кадров/сек (1536 spf)
    Метод сжатия : С потерями
    Размер потока : 135 Мбайт (9%)
    Выравнивание : Разделение по промежуткам
    Продолжительность промежутка : 40 мс. (1, 00 видеокадр)
    Время предзагрузки промежутка : 500 мс

    Скриншоты



    Залил: AVPStudio

    Онлайн видео Земля и люди (1955) SATRip от New


    Размер скачиваемого торрента: 1.46 GB (1567737856 Bytes)

    Земля и люди (1955) SATRip от New-Team
    загрузка...
    Рейтинг →
     (голосов: 1, оценка 3/5, голосовать можно 1 раз )

    Другие торренты по теме:

  • Земля и люди (1955) SATRip-AVC от New-Team


    • Комментарии (0):

      Информация

      Информация

        Посетители, находящиеся в группе Гости, не могут оставлять комментарии в данной новости.

        ↓ Меню



        ↓ Опрос

        А Вы добавили сайт в закладки?
        Да
        Не


        Top 10 за месяц (Фильмы)