.
Авторизация | Регистрация
Хочешь лучшие торренты? Добавь свой email!
Добавить
» » Первый мститель: Противостояние / Captain America: Civil War (2016) BDRemux 1080p от ExKinoRay | iTunes скачать торрент бесплатно




    Первый мститель: Противостояние / Captain America: Civil War (2016) BDRemux 1080p от ExKinoRay | iTunes скачать торрент бесплатно

    Опубликовал: Админ | Дата: 31-08-2016, 05:00 | Просмотров: 44



    Детально о кино
    Русское название: Первый мститель: Противостояние
    Русское название в мировом прокате: Captain America: Civil War
    Создали в: 2016
    Категория жанра: Фантастика, боевик, приключения
    Главный режиссер: Энтони Руссо, Джо Руссо

    Актеры
    Крис Эванс, Роберт Дауни мл., Скарлетт Йоханссон, Себастьян Стэн, Энтони Маки, Дон Чидл, Джереми Реннер, Чэдвик Боузмэн, Пол Беттани, Элизабет Олсен
    О фильме:
    После того, как Мстители помешали космическому засланцу отжать кусок исконных земель у мирного восточноевропейского государства и совершили еще множество глупых подвигов, они успешно приватизировали мир во всем мире. Однако, не все готовы терпеть супергеройские методы, зачастую имеющие разрушительные последствия и влекущие за собой человеческие жертвы. Стремясь урегулировать деятельность людей с расширенными возможностями и вынуждая их работать на государственные службы, правительство вводит Акт о регистрации супергероев. Стив Роджерс считает этот занимательный документ прямым ограничением своих прав и свобод. Он выступает против нового порядка. Тони Старк, напротив, поддерживает любую форму контроля. У каждого из них находятся свои сторонники в среде супергероев. Коренное разногласие в этом принципиальном вопросе приводит к идеологическому расколу Мстителей, а затем и к открытому конфликту между двумя супергеройскими фракциями. И пока Капитан Америка и Железный человек устраивают групповые дуэли, некий арийский иллюминат Гельмут Земо претворяет в жизнь свой коварный план, пользуясь досадными трениями между величайшими героями Земли.

    Снималось в: США
    Киностудия: Marvel Entertainment, Marvel Studios Inc., Studio Babelsberg
    Время просмотра: 02: 27: 41
    Перевод текста: Дублированный | iTunes
    Файл
    Кодек для видео: MPEG-4
    Качество фильма: BDRemux 1080p
    Информация о видео: 1920x1080, 23.8 Mbit/s, 23.976 fps
    Информация о звуке:
    Информация о звуке #01: 48 kHz, AC3, 5.1, 384 Kbps | Дублированный, iTunes |
    Информация о звуке #02: 48 kHz, DTS-HD MA, 7.1, 4699 kbps | Оригинал |
    Субтитры: Английские

    MI
    General
    Unique ID : 251932508930459309722293482778348533300 (0xBD886FB0CAAE7267BE9C7CCD7950B634)
    Complete name : G: VideoCaptain.America.Civil.War.2016.D.BDREMUX.1080p.ExKinoRay.mkv
    Format : Matroska
    Format version : Version 4/Version 2
    File size : 29.8 GiB
    Duration : 2 h 27 min
    Overall bit rate mode : Variable
    Overall bit rate : 28.9 Mb/s
    Movie name : Captain.America.Civil.War.2016.D.BDREMUX.1080p.ExKinoRay
    Encoded date : UTC 2016-08-30 11: 56: 01
    Writing application : mkvmerge v8.3.0 (;Over the Horizon;) 64bit
    Writing library : libebml v1.3.1 + libmatroska v1.4.2
    Video
    ID : 1
    Format : AVC
    Format/Info : Advanced Video Codec
    Format profile : High@L4.1
    Format settings, CABAC : Yes
    Format settings, ReFrames : 4 frames
    Format settings, GOP : M=3, N=12
    Codec ID : V_MPEG4/ISO/AVC
    Duration : 2 h 27 min
    Bit rate mode : Variable
    Bit rate : 23.8 Mb/s
    Maximum bit rate : 35.0 Mb/s
    Width : 1 920 pixels
    Height : 1 080 pixels
    Display aspect ratio : 16: 9
    Frame rate mode : Constant
    Frame rate : 23.976 (24000/1001) FPS
    Color space : YUV
    Chroma subsampling : 4: 2: 0
    Bit depth : 8 bits
    Scan type : Progressive
    Bits/(Pixel*Frame) : 0.479
    Stream size : 24.6 GiB (82%)
    Language : English
    Default : Yes
    Forced : No
    Audio #1
    ID : 2
    Format : AC-3
    Format/Info : Audio Coding 3
    Mode extension : CM (complete main)
    Format settings, Endianness : Big
    Codec ID : A_AC3
    Duration : 2 h 27 min
    Bit rate mode : Constant
    Bit rate : 384 kb/s
    Channel(s) : 6 channels
    Channel positions : Front: L C R, Side: L R, LFE
    Sampling rate : 48.0 kHz
    Frame rate : 31.250 FPS (1536 spf)
    Compression mode : Lossy
    Delay relative to video : 800 ms
    Stream size : 406 MiB (1%)
    Title : iTunes
    Language : Russian
    Default : Yes
    Forced : No
    Audio #2
    ID : 3
    Format : DTS
    Format/Info : Digital Theater Systems
    Format profile : MA/Core
    Mode : 16
    Format settings, Endianness : Big
    Codec ID : A_DTS
    Duration : 2 h 27 min
    Bit rate mode : Variable/Constant
    Bit rate : 4 699 kb/s/1 509 kb/s
    Channel(s) : 8 channels/6 channels
    Channel positions : Front: L C R, Side: L R, Back: L R, LFE/Front: L C R, Side: L R, LFE
    Sampling rate : 48.0 kHz
    Frame rate : 93.750 FPS (512 spf)
    Bit depth : 24 bits
    Compression mode : Lossless/Lossy
    Stream size : 4.85 GiB (16%)
    Title : Original
    Language : English
    Default : No
    Forced : No
    Text #1
    ID : 4
    Format : UTF-8
    Codec ID : S_TEXT/UTF8
    Codec ID/Info : UTF-8 Plain Text
    Duration : 2 h 25 min
    Bit rate : 50 b/s
    Count of elements : 1865
    Stream size : 54.2 KiB (0%)
    Title : Full
    Language : English
    Default : No
    Forced : No
    Text #2
    ID : 5
    Format : UTF-8
    Codec ID : S_TEXT/UTF8
    Codec ID/Info : UTF-8 Plain Text
    Duration : 2 h 26 min
    Bit rate : 55 b/s
    Count of elements : 2105
    Stream size : 59.1 KiB (0%)
    Title : SDH
    Language : English
    Default : No
    Forced : No
    Menu
    00: 00: 00.000 : en: 00: 00: 00.000
    00: 09: 01.958 : en: 00: 09: 01.958
    00: 13: 04.993 : en: 00: 13: 04.993
    00: 21: 03.345 : en: 00: 21: 03.345
    00: 27: 53.380 : en: 00: 27: 53.380
    00: 31: 57.290 : en: 00: 31: 57.290
    00: 35: 08.398 : en: 00: 35: 08.398
    00: 42: 58.451 : en: 00: 42: 58.451
    00: 52: 04.621 : en: 00: 52: 04.621
    01: 05: 39.102 : en: 01: 05: 39.102
    01: 16: 41.639 : en: 01: 16: 41.639
    01: 22: 28.777 : en: 01: 22: 28.777
    01: 29: 29.489 : en: 01: 29: 29.489
    01: 34: 09.769 : en: 01: 34: 09.769
    01: 45: 38.582 : en: 01: 45: 38.582
    01: 55: 54.322 : en: 01: 55: 54.322
    02: 02: 35.056 : en: 02: 02: 35.056
    02: 12: 14.176 : en: 02: 12: 14.176
    02: 18: 29.384 : en: 02: 18: 29.384
    Скриншоты

    Релиз подготовил: Автор релиза:

    Онлайн видео Первый мститель: Противостояние


    Размер скачиваемого торрента: 29.80 GB (31997984610 Bytes)

    Первый мститель: Противостояние/Captain America: Civil War (2016) BDRemux 1080p от ExKinoRay | iTunes
    загрузка...
    Рейтинг →
     (голосов: 1, оценка 5/5, голосовать можно 1 раз )

    Другие торренты по теме:

  • OST - Капитан Америка: Первый Мститель / Captain America: The First Avenger (2011) MP3
  • Первый мститель / Captain America: The First Avenger (2011) BDRip 1080p от Youtracker | Лицензия
  • Первый мститель / Captain America: The First Avenger (2011) BDRip 720p от leonardo 59 Scarabey | Лицензия скачать через торрент бесплатно
  • Первый мститель: Другая война / Captain America: The Winter Soldier (2014) HD 1080p | Трейлер
  • Первый мститель: Другая война / Captain America: The Winter Soldier (2014) DCPrip | 3D | Трейлер скачать через торрент бесплатно
  • Первый мститель: Другая война / Captain America: The Winter Soldier (2014) DCPrip 2K | Трейлер скачать через торрент бесплатно
  • Первый мститель: Другая война (2014)
  • OST - Первый мститель: Другая война / Captain America: The Winter Soldier (2014) MP3


    • Комментарии (0):

      Информация

      Информация

        Посетители, находящиеся в группе Гости, не могут оставлять комментарии в данной новости.

        ↓ Меню



        ↓ Опрос

        А Вы добавили сайт в закладки?
        Да
        Не


        Top 10 за месяц (Фильмы)