.
Авторизация | Регистрация
Хочешь лучшие торренты? Добавь свой email!
Добавить
» » Маленькая Одесса / Little Odessa (1994) WEBRip 1080p | P, A скачать торрент бесплатно




    Маленькая Одесса / Little Odessa (1994) WEBRip 1080p | P, A скачать торрент бесплатно

    Опубликовал: Админ | Дата: 30-08-2016, 05:00 | Просмотров: 97



    Детально о кино
    Русское название: Маленькая Одесса
    Русское название в мировом прокате: Little Odessa
    Создали в: 1994
    Категория жанра: драма, криминал
    Главный режиссер: Джеймс Грэй

    Актеры
    Тим Рот, Эдвард Ферлонг, Мойра Келли, Ванесса Редгрейв, Пол Гилфойл, Наталья Андрейченко, Максимилиан Шелл, Давид Вадим, Мина Берн, Борис МакГайвер

    Сюжет фильма

    Профессиональный убийца Йосиф Шапира получает задание убрать человека в своем родном районе, где живут его отец, умирающая мать и младший брат. Отец давно отказался от сына-убийцы, так как знает о роде его занятий, но брат и мать любят его. Да и отец не может окончательно вычеркнуть его из сердца.
    Встреча членов этой семьи заканчивается трагедией. Йосифу приходится убить сына местного авторитета, считавшего, что он мертв, так как тот увидел его на улице, а Йосиф ни в коем случае не мог допустить, чтобы об этом узнал папа покойного — это было бы равносильно смерти.

    Снималось в: США
    Киностудия: Fine Line Features, Live Entertainment, New Line Cinema
    Время просмотра: 01: 38: 11
    Перевод текста: Профессиональный (многоголосый, закадровый) Сонотек + Авторский (одноголосый, закадровый) Ю.Сербин + Авторский (одноголосый, закадровый) С.Визгунов
    Файл
    Тип видео: Matroska
    Информация о видео: 1920x816 at 23.976 fps, MPEG-4 AVC, ~5800 kbps avg
    Информация о звуке#1: Russian: 48 kHz, AC3 Dolby Digital, 3/2 (L, C, R, l, r) + LFE ch, ~448 kbps avg |Многоголосый закадровый, Сонотек|
    Информация о звуке#2: Russian: 48 kHz, AC3 Dolby Digital, 2/0 (L, R) ch, ~192 kbps avg |Авторский, Ю.Сербин|
    Информация о звуке#3: Russian: 48 kHz, AC3 Dolby Digital, 2/0 (L, R) ch, ~192 kbps avg |Авторский, С.Визгунов|
    Информация о звуке#4: English: 48 kHz, AC3 Dolby Digital, 3/2 (L, C, R, l, r) + LFE ch, ~448 kbps avg |DVD|
    Информация о звуке#5: English: 48 kHz, EAC3 Dolby Digital Plus, 2/0 (L, R) ch, ~224 kbps avg
    Субтитры: English
    ***Сохранены оригинальные главы.
    ***Исходник - NTb, сборка - flaSI-I.
    MI
    Общее
    Уникальный идентификатор : 198992516465831175604516494318118586047 (0x95B4908ABE3AAD78B5A94E42AE4746BF)
    Полное имя : Little Odessa.1994.WEBRip.1080p.mkv
    Формат : Matroska
    Версия формата : Version 4/Version 2
    Размер файла : 5, 02 Гбайт
    Продолжительность : 1 ч. 38 м.
    Режим общего битрейта : Переменный
    Общий поток : 7319 Кбит/сек
    Дата кодирования : UTC 2016-08-28 21: 19: 11
    Программа кодирования : mkvmerge v9.4.0 (;Knurl;) 64bit
    Библиотека кодирования : libebml v1.3.4 + libmatroska v1.4.5
    Видео
    Идентификатор : 1
    Формат : AVC
    Формат/Информация : Advanced Video Codec
    Профиль формата : High@L4
    Параметр CABAC формата : Да
    Параметр ReFrames формата : 4 кадра
    Идентификатор кодека : V_MPEG4/ISO/AVC
    Продолжительность : 1 ч. 38 м.
    Вид битрейта : Переменный
    Битрейт : 5669 Кбит/сек
    Максимальный битрейт : 15, 0 Мбит/сек
    Ширина : 1920 пикселей
    Высота : 816 пикселей
    Соотношение сторон : 2, 35: 1
    Режим частоты кадров : Постоянный
    Частота кадров : 23, 976 кадра/сек
    Цветовое пространство : YUV
    Субдискретизация насыщенности : 4: 2: 0
    Битовая глубина : 8 бит
    Тип развёртки : Прогрессивная
    Бит/(Пиксели*Кадры) : 0.151
    Размер потока : 3, 89 Гбайт (77%)
    Библиотека кодирования : x264 core 148 r2623 d5b2374
    Настройки программы : cabac=1/ref=4/deblock=1: -1: -1/analyse=0x3: 0x133/me=umh/subme=9/psy=1/psy_rd=1.00: 0.15/mixed_ref=1/me_range=24/chroma_me=1/trellis=2/8x8dct=1/cqm=0/deadzone=21, 11/fast_pskip=1/chroma_qp_offset=-3/threads=25/lookahead_threads=4/sliced_threads=0/nr=150/decimate=1/interlaced=0/bluray_compat=0/constrained_intra=0/bframes=8/b_pyramid=2/b_adapt=2/b_bias=0/direct=3/weightb=1/open_gop=0/weightp=2/keyint=120/keyint_min=61/scenecut=0/intra_refresh=0/rc_lookahead=120/rc=crf/mbtree=1/crf=18.0/qcomp=0.60/qpmin=0/qpmax=69/qpstep=4/vbv_maxrate=15000/vbv_bufsize=31250/crf_max=0.0/nal_hrd=vbr/filler=0/ip_ratio=1.40/aq=3: 1.00
    Язык : English
    Default : Да
    Forced : Нет
    Цветовой диапазон : Limited
    Основные цвета : BT.709
    Характеристики трансфера : BT.709
    Коэффициенты матрицы : BT.709
    Аудио #1
    Идентификатор : 2
    Формат : AC-3
    Формат/Информация : Audio Coding 3
    Расширение режима : CM (complete main)
    Параметр Endianness формата : Big
    Идентификатор кодека : A_AC3
    Продолжительность : 1 ч. 38 м.
    Вид битрейта : Постоянный
    Битрейт : 448 Кбит/сек
    Каналы : 6 каналов
    Расположение каналов : Front: L C R, Side: L R, LFE
    Частота : 48, 0 КГц
    Метод сжатия : С потерями
    Размер потока : 315 Мбайт (6%)
    Заголовок : MVO/СОНОТЭК
    Язык : Russian
    Default : Да
    Forced : Нет
    Аудио #2
    Идентификатор : 3
    Формат : AC-3
    Формат/Информация : Audio Coding 3
    Расширение режима : CM (complete main)
    Параметр Endianness формата : Big
    Идентификатор кодека : A_AC3
    Продолжительность : 1 ч. 38 м.
    Вид битрейта : Постоянный
    Битрейт : 192 Кбит/сек
    Каналы : 2 канала
    Расположение каналов : Front: L R
    Частота : 48, 0 КГц
    Метод сжатия : С потерями
    Размер потока : 135 Мбайт (3%)
    Заголовок : AVO/Юрий Сербин
    Язык : Russian
    Default : Нет
    Forced : Нет
    Аудио #3
    Идентификатор : 4
    Формат : AC-3
    Формат/Информация : Audio Coding 3
    Расширение режима : CM (complete main)
    Параметр Endianness формата : Big
    Идентификатор кодека : A_AC3
    Продолжительность : 1 ч. 38 м.
    Вид битрейта : Постоянный
    Битрейт : 192 Кбит/сек
    Каналы : 2 канала
    Расположение каналов : Front: L R
    Частота : 48, 0 КГц
    Метод сжатия : С потерями
    Размер потока : 135 Мбайт (3%)
    Заголовок : AVO/Сергей Визгунов
    Язык : Russian
    Default : Нет
    Forced : Нет
    Аудио #4
    Идентификатор : 5
    Формат : AC-3
    Формат/Информация : Audio Coding 3
    Расширение режима : CM (complete main)
    Параметр Endianness формата : Big
    Идентификатор кодека : A_AC3
    Продолжительность : 1 ч. 38 м.
    Вид битрейта : Постоянный
    Битрейт : 448 Кбит/сек
    Каналы : 6 каналов
    Расположение каналов : Front: L C R, Side: L R, LFE
    Частота : 48, 0 КГц
    Метод сжатия : С потерями
    Размер потока : 315 Мбайт (6%)
    Заголовок : Original/DVD
    Язык : English
    Default : Нет
    Forced : Нет
    Аудио #5
    Идентификатор : 6
    Формат : E-AC-3
    Формат/Информация : Audio Coding 3
    Параметр Endianness формата : Big
    Идентификатор кодека : A_EAC3
    Продолжительность : 1 ч. 38 м.
    Вид битрейта : Постоянный
    Битрейт : 224 Кбит/сек
    Каналы : 2 канала
    Расположение каналов : Front: L R
    Частота : 48, 0 КГц
    Метод сжатия : С потерями
    Размер потока : 157 Мбайт (3%)
    Заголовок : Original
    Язык : English
    Default : Нет
    Forced : Нет
    Текст
    Идентификатор : 7
    Формат : UTF-8
    Идентификатор кодека : S_TEXT/UTF8
    Идентификатор кодека/Информация : UTF-8 Plain Text
    Заголовок : Original
    Язык : English
    Default : Нет
    Forced : Нет
    Меню
    00: 00: 00.000 : en: Chapter 1
    00: 06: 45.405 : en: Chapter 2
    00: 16: 05.339 : en: Chapter 3
    00: 24: 58.997 : en: Chapter 4
    00: 29: 57.420 : en: Chapter 5
    00: 38: 16.669 : en: Chapter 6
    00: 47: 42.234 : en: Chapter 7
    00: 58: 08.485 : en: Chapter 8
    01: 07: 54.695 : en: Chapter 9
    01: 14: 40.100 : en: Chapter 10
    01: 23: 26.876 : en: Chapter 11
    01: 30: 09.153 : en: Chapter 12
    Скриншоты



    Онлайн видео Маленькая Одесса


    Размер скачиваемого торрента: 5.02 GB (5390220008 Bytes)

    Маленькая Одесса/Little Odessa (1994) WEBRip 1080p | P, A
    загрузка...
    Рейтинг →
     (голосов: 1, оценка 4/5, голосовать можно 1 раз )

    Другие торренты по теме:

  • Маленькая Одесса / Little Odessa (1994) DVDRip | P
  • Маленькая Одесса / Little Odessa (1994) DVDRip | A


    • Комментарии (0):

      Информация

      Информация

        Посетители, находящиеся в группе Гости, не могут оставлять комментарии в данной новости.

        ↓ Меню



        ↓ Опрос

        А Вы добавили сайт в закладки?
        Да
        Не


        Top 10 за месяц (Фильмы)