.
Авторизация | Регистрация
Хочешь лучшие торренты? Добавь свой email!
Добавить
» » Равные / Equals (2015) BDRemux 1080p от ExKinoRay | US Transfer | Лицензия скачать торрент бесплатно




    Равные / Equals (2015) BDRemux 1080p от ExKinoRay | US Transfer | Лицензия скачать торрент бесплатно

    Опубликовал: Админ | Дата: 30-08-2016, 05:00 | Просмотров: 114



    Детально о кино
    Русское название: Равные
    Русское название в мировом прокате: Equals
    Создали в: 2015
    Категория жанра: Фантастика, драма, мелодрама
    Главный режиссер: Дрейк Доримус

    Актеры
    Николас Холт, Кристен Стюарт, Гай Пирс, Джеки Уивер, Тоби Хасс, Дэвид Шелби, Кейт Лин Шейл, Ребекка Хэзлвуд, Тео Ю, Аврора Периньо, Скотт Лоуренс, Бел Паули, Том Стоукс, Кай Леннокс, Су-хён
    О фильме:
    Фильм Равные рассказывает историю Сайласа, который живет в будущем, в обществе, названном Коллектив. Жители этого современного мира — новое поколение людей, называемое Равными. Равные — это мирные, спокойные, вежливые и справедливые люди, и жизнь в Коллективе идеальна. В нем не существует ни бедности, ни жадности, ни насилия, ни эмоций… Но над обществом нависает новая угроза: заболевание SOS или Синдром Общественной Сознательности, жертвы которого подвергаются всему, чего, как они думали, избежали: депрессия, уязвимость, страх, любовь. Если правительство обнаружит человека, зараженного SOS, его сразу же заберут в Нору, после чего этого человека уже никто и никогда не увидит. Когда главный герой обнаруживает, что он тоже заражен, он становится изгоем, но замечает одного человека, который, как ему кажется, понимает через что ему приходится проходить. В это время правительство заявляет о том, что лекарство от болезни включенных эмоций было найдено, и главные герои вынуждены искать способ выжить.

    Снималось в: США
    Киностудия: Freedom Media, Infinite Frameworks Studios, Route One Films, Scott Free Productions
    Время просмотра: 01: 42: 12
    Перевод текста: Дублированный | Лицензия Blu-Ray
    Файл
    Кодек для видео: MPEG-4
    Качество фильма: BDRemux 1080p
    Информация о видео: 1920x1080, 34.0 Mbit/s, 23.976 fps
    Информация о звуке:
    Информация о звуке #01: 48 kHz, DTS-HD MA, 5.1, 1877 Kbps | Дублированный, Лицензия |
    Информация о звуке #02: 48 kHz, AC3, 5.1, 640 Kbps | Дублированный, Лицензия |
    Информация о звуке #03: 48 kHz, DTS-HD MA, 5.1, 3211 kbps | Оригинал |
    Субтитры: Русские, английские

    MI
    General
    Unique ID : 230358163760405028606299667464000097796 (0xAD4D5E596CE27E1C8218BE2653AFCE04)
    Complete name : G: VideoEquals.2015.BDREMUX.1080p.ExKinoRay.mkv
    Format : Matroska
    Format version : Version 4/Version 2
    File size : 28.4 GiB
    Duration : 1 h 42 min
    Overall bit rate mode : Variable
    Overall bit rate : 39.8 Mb/s
    Movie name : Equals.2015.BDREMUX.1080p.ExKinoRay
    Encoded date : UTC 2016-08-29 09: 11: 33
    Writing application : mkvmerge v8.3.0 (;Over the Horizon;) 64bit
    Writing library : libebml v1.3.1 + libmatroska v1.4.2
    Video
    ID : 1
    Format : AVC
    Format/Info : Advanced Video Codec
    Format profile : High@L4.1
    Format settings, CABAC : Yes
    Format settings, ReFrames : 4 frames
    Codec ID : V_MPEG4/ISO/AVC
    Duration : 1 h 42 min
    Bit rate mode : Variable
    Bit rate : 34.0 Mb/s
    Maximum bit rate : 37.0 Mb/s
    Width : 1 920 pixels
    Height : 1 080 pixels
    Display aspect ratio : 16: 9
    Frame rate mode : Constant
    Frame rate : 23.976 (24000/1001) FPS
    Color space : YUV
    Chroma subsampling : 4: 2: 0
    Bit depth : 8 bits
    Scan type : Progressive
    Bits/(Pixel*Frame) : 0.685
    Stream size : 24.3 GiB (86%)
    Language : English
    Default : Yes
    Forced : No
    Audio #1
    ID : 2
    Format : DTS
    Format/Info : Digital Theater Systems
    Format profile : MA/Core
    Mode : 16
    Format settings, Endianness : Big
    Codec ID : A_DTS
    Duration : 1 h 42 min
    Bit rate mode : Variable/Constant
    Bit rate : 1 877 kb/s/1 509 kb/s
    Channel(s) : 6 channels
    Channel positions : Front: L C R, Side: L R, LFE
    Sampling rate : 48.0 kHz
    Frame rate : 93.750 FPS (512 spf)
    Bit depth : 16 bits
    Compression mode : Lossless/Lossy
    Stream size : 1.34 GiB (5%)
    Language : Russian
    Default : No
    Forced : No
    Audio #2
    ID : 3
    Format : AC-3
    Format/Info : Audio Coding 3
    Mode extension : CM (complete main)
    Format settings, Endianness : Big
    Codec ID : A_AC3
    Duration : 1 h 42 min
    Bit rate mode : Constant
    Bit rate : 640 kb/s
    Channel(s) : 6 channels
    Channel positions : Front: L C R, Side: L R, LFE
    Sampling rate : 48.0 kHz
    Frame rate : 31.250 FPS (1536 spf)
    Compression mode : Lossy
    Stream size : 468 MiB (2%)
    Language : Russian
    Default : No
    Forced : No
    Audio #3
    ID : 4
    Format : DTS
    Format/Info : Digital Theater Systems
    Format profile : MA/Core
    Mode : 16
    Format settings, Endianness : Big
    Codec ID : A_DTS
    Duration : 1 h 42 min
    Bit rate mode : Variable/Constant
    Bit rate : 3 211 kb/s/1 509 kb/s
    Channel(s) : 6 channels
    Channel positions : Front: L C R, Side: L R, LFE
    Sampling rate : 48.0 kHz
    Frame rate : 93.750 FPS (512 spf)
    Bit depth : 24 bits
    Compression mode : Lossless/Lossy
    Stream size : 2.29 GiB (8%)
    Language : English
    Default : No
    Forced : No
    Text #1
    ID : 5
    Format : UTF-8
    Codec ID : S_TEXT/UTF8
    Codec ID/Info : UTF-8 Plain Text
    Duration : 1 h 30 min
    Bit rate : 70 b/s
    Count of elements : 776
    Stream size : 46.6 KiB (0%)
    Language : Russian
    Default : No
    Forced : No
    Text #2
    ID : 6
    Format : UTF-8
    Codec ID : S_TEXT/UTF8
    Codec ID/Info : UTF-8 Plain Text
    Duration : 1 h 30 min
    Bit rate : 41 b/s
    Count of elements : 692
    Stream size : 27.7 KiB (0%)
    Language : English
    Default : No
    Forced : No
    Menu
    00: 00: 00.000 : en: 00: 00: 00.000
    00: 09: 01.958 : en: 00: 09: 01.958
    00: 13: 04.993 : en: 00: 13: 04.993
    00: 21: 03.345 : en: 00: 21: 03.345
    00: 27: 53.380 : en: 00: 27: 53.380
    00: 31: 57.290 : en: 00: 31: 57.290
    00: 35: 08.398 : en: 00: 35: 08.398
    00: 42: 58.451 : en: 00: 42: 58.451
    00: 52: 04.621 : en: 00: 52: 04.621
    01: 05: 39.102 : en: 01: 05: 39.102
    01: 16: 41.639 : en: 01: 16: 41.639
    01: 22: 28.777 : en: 01: 22: 28.777
    01: 29: 29.489 : en: 01: 29: 29.489
    01: 34: 09.769 : en: 01: 34: 09.769
    01: 45: 38.582 : en: 01: 45: 38.582
    01: 55: 54.322 : en: 01: 55: 54.322
    02: 02: 35.056 : en: 02: 02: 35.056
    02: 12: 14.176 : en: 02: 12: 14.176
    02: 18: 29.384 : en: 02: 18: 29.384
    Скриншоты

    Релиз подготовил: Автор релиза:

    Онлайн видео Равные


    Размер скачиваемого торрента: 28.39 GB (30485122075 Bytes)

    Равные/Equals (2015) BDRemux 1080p от ExKinoRay | US Transfer | Лицензия
    загрузка...
    Рейтинг →
     (голосов: 1, оценка 5/5, голосовать можно 1 раз )

    Другие торренты по теме:

  • Равные / Equals (2015)
  • Равные / Equals (2015) WEB-DLRip 720p | L2
  • Равные / Equals (2015) WEB-DLRip | L2
  • Равные / Equals (2015) WEB-DLRip | Line
  • Равные / Equals (2015) WEB-DL 1080p | Line
  • Равные / Equals (2015) WEB-DLRip от Scarabey | iTunes
  • Равные / Equals (2015) BDRip 1080p от ExKinoRay | Лицензия
  • Равные / Equals (2015) BDRip от MegaPeer | Лицензия


    • Комментарии (0):

      Информация

      Информация

        Посетители, находящиеся в группе Гости, не могут оставлять комментарии в данной новости.

        ↓ Меню



        ↓ Опрос

        А Вы добавили сайт в закладки?
        Да
        Не


        Top 10 за месяц (Фильмы)