.
Авторизация | Регистрация
Хочешь лучшие торренты? Добавь свой email!
Добавить
» » Репортерша / Whiskey Tango Foxtrot (2016) BDRip | А скачать торрент бесплатно




    Репортерша / Whiskey Tango Foxtrot (2016) BDRip | А скачать торрент бесплатно

    Опубликовал: Админ | Дата: 30-08-2016, 05:00 | Просмотров: 69



    Репортёрша / Whiskey Tango Foxtrot
    Снималось в: США
    Создали в: Paramount Pictures, Little Stranger, Broadway Video
    Создали в: 2016
    Категория жанра: драма, комедия, военный, биография
    Время просмотра: 01: 51: 48
    Главный режиссеры: Гленн Фикарра, Джон Рекуа
    Авторы сценария: Роберт Кэрлок, Ким Баркер

    Актеры
    Тина Фей, Марго Робби, Мартин Фриман, Альфред Молина, Кристофер Эбботт, Билли Боб Торнтон, Николас Браун, Стивен Пикок
    Описание: Фильм расскажет о деятельности журналистки в качестве репортёра в Афганистане и Пакистане, после прибытия туда в 2002 году...

    Перевод текста: Авторский (одноголосый, закадровый) | Антон Карповский
    Субтитры: русские (вшитые) /на надписи и речь пуштунов
    Качество фильма: BDRip
    Тип видео: АVI
    Информация о видео кодек: XviD
    Информация о звуке кодек: АС3
    Информация о видео: 688x384 (16: 9), 23.976 fps, XviD build 73 ~1 417 kbps avg, 0.224 bit/pixel
    Информация о звуке: 48 kHz, AC3 Dolby Digital, 3/2 (L, C, R, l, r) + LFE ch, ~448 kbps
    Бюджет: $35 000 000
    Дата премьеры (мир): 4 марта 2016

    Релиз подготовил: ylnian
    За видеоряд спасибо Twі7ter
    Заказ перевода у Антона Карповского (июль 2016 г.) - ylnian
    За сборку дороги спасибо rammzez
    Media Info
    General
    Полное имя : Whiskey.Tango.Foxtrot.2016.BDRip-ylnian.avi
    Формат : AVI
    Формат/Информация : Audio Video Interleave
    Размер файла : 1, 46 Гбайт
    Продолжительность : 1 ч. 51 м.
    Общий поток : 1875 Кбит/сек
    Программа кодирования : VirtualDubMod 1.5.10.2 (build 2540/release)
    Библиотека кодирования : VirtualDubMod build 2540/release
    Видео
    Идентификатор : 0
    Формат : MPEG-4 Visual
    Профиль формата : Advanced Simple@L5
    Параметр BVOP формата : 1
    Параметр QPel формата : Нет
    Параметр GMC формата : Без точки перехода
    Параметр матрицы формата : Выборочная
    Идентификатор кодека : XVID
    Идентификатор кодека/Подсказка : XviD
    Продолжительность : 1 ч. 51 м.
    Битрейт : 1417 Кбит/сек
    Ширина : 688 пикселей
    Высота : 384 пикселя
    Соотношение сторон : 16: 9
    Частота кадров : 23, 976 (24000/1001) кадра/сек
    Цветовое пространство : YUV
    Субдискретизация насыщенности : 4: 2: 0
    Битовая глубина : 8 бит
    Тип развёртки : Прогрессивная
    Метод сжатия : С потерями
    Бит/(Пиксели*Кадры) : 0.224
    Размер потока : 1, 11 Гбайт (76%)
    Библиотека кодирования : XviD 73
    Аудио
    Идентификатор : 1
    Формат : AC-3
    Формат/Информация : Audio Coding 3
    Расширение режима : CM (complete main)
    Параметр Endianness формата : Big
    Идентификатор кодека : 2000
    Продолжительность : 1 ч. 51 м.
    Вид битрейта : Постоянный
    Битрейт : 448 Кбит/сек
    Каналы : 6 каналов
    Расположение каналов : Front: L C R, Side: L R, LFE
    Частота : 48, 0 КГц
    Частота кадров : 31, 250 кадров/сек (1536 spf)
    Метод сжатия : С потерями
    Размер потока : 358 Мбайт (24%)
    Выравнивание : Разделение по промежуткам
    Продолжительность промежутка : 42 мс. (1, 00 видеокадр)
    Время предзагрузки промежутка : 500 мс.
    Заголовок : RUS - AVO - Karpovsky

    Скриншоты

    Залил: Zha-4k-e

    Онлайн видео Репортерша


    Размер скачиваемого торрента: 1.46 GB (1571989504 Bytes)

    Репортерша/Whiskey Tango Foxtrot (2016) BDRip | А
    загрузка...
    Рейтинг →
     (голосов: 1, оценка 4/5, голосовать можно 1 раз )

    Другие торренты по теме:

  • Репортерша / Whiskey Tango Foxtrot (2016) BDRemux 1080p | Tunes
  • Репортерша / Whiskey Tango Foxtrot (2016) BDRip 1080p от ExKinoRay | iTunes
  • Репортерша / Whiskey Tango Foxtrot (2016) HDRip от Scarabey | iTunes
  • Репортерша / Whiskey Tango Foxtrot (2016) HDRip от MegaPeer | Лицензия
  • Репортерша / Whiskey Tango Foxtrot (2016) BDRip 720p от ExKinoRay | Лицензия
  • Репортерша / Whiskey Tango Foxtrot (2016) BDRemux 1080p от ExKinoRay | Лицензия
  • Репортерша / Whiskey Tango Foxtrot (2016) BDRip-AVC от New-Team | Лицензия
  • Репортерша / Whiskey Tango Foxtrot (2016) BDRip от HQ-ViDEO


    • Комментарии (0):

      Информация

      Информация

        Посетители, находящиеся в группе Гости, не могут оставлять комментарии в данной новости.

        ↓ Меню



        ↓ Опрос

        А Вы добавили сайт в закладки?
        Да
        Не


        Top 10 за месяц (Фильмы)