.
Авторизация | Регистрация
Хочешь лучшие торренты? Добавь свой email!
Добавить
» » Парни со стволами / War Dogs (2016) TS | D скачать торрент бесплатно




    Парни со стволами / War Dogs (2016) TS | D скачать торрент бесплатно

    Опубликовал: Админ | Дата: 29-08-2016, 05:01 | Просмотров: 58



    Парни со стволами / War Dogs
    Снималось в: США
    Создали в: Green Hat Films, The Mark Gordon Company
    Создали в: 2016
    Категория жанра: драма, комедия, военный
    Время просмотра: 01: 54: 26
    Главный режиссер: Тодд Филлипс
    Авторы сценария: Стефен Чин, Тодд Филлипс, Джейсон Смилович

    Актеры
    Майлз Теллер, Джона Хилл, Стив Лэнц, Грегг Уэйнер, Эдди Джемисон, Джулиан Сержи, Дэниэл Берсон, Эдсон Жан, Ана де Армас
    Описание: Реальная история о приятелях-планокурах из Майами, умудрившихся выбить в Пентагоне контракт на 300 миллионов долларов на поставку оружия...

    Перевод текста: Профессиональный (полное дублирование)
    Субтитры: вшитые иностранные
    Качество фильма: TS
    Тип видео: АVI
    Информация о видео кодек: XviD
    Информация о звуке кодек: АС3
    Информация о видео: 720x304 (2.35: 1), 25.000 fps, XviD ~1 621 kbps avg
    Информация о звуке: 48 kHz, AC3 Dolby Digital, 2/0 (L, R) ch, ~192 kbps
    Дата премьеры (мир): 18 августа 2016
    Дата премьеры (РФ): 18 августа 2016, Каро-Премьер
    ПРИМЕЧАНИЕ: ПРИСУТСТВУЕТ РЕКЛАМА!
    Media Info
    General
    Общее
    Полное имя : Parni.So.STvoLami.2O16.D.TS.14OOMB.avi
    Формат : AVI
    Формат/Информация : Audio Video Interleave
    Размер файла : 1, 46 Гбайт
    Продолжительность : 1 ч. 54 м.
    Общий поток : 1822 Кбит/сек
    Программа кодирования : VirtualDubMod 1.5.10.2 (build 2540/release)
    Библиотека кодирования : VirtualDubMod build 2540/release
    Видео
    Идентификатор : 0
    Формат : MPEG-4 Visual
    Профиль формата : Advanced Simple@L5
    Параметр BVOP формата : Да
    Параметр QPel формата : Нет
    Параметр GMC формата : Без точки перехода
    Параметр матрицы формата : Выборочная
    Идентификатор кодека : XVID
    Идентификатор кодека/Подсказка : XviD
    Продолжительность : 1 ч. 54 м.
    Битрейт : 1621 Кбит/сек
    Ширина : 720 пикселей
    Высота : 304 пикселя
    Соотношение сторон : 2, 35: 1
    Частота кадров : 25, 000 кадров/сек
    Цветовое пространство : YUV
    Субдискретизация насыщенности : 4: 2: 0
    Битовая глубина : 8 бит
    Тип развёртки : Прогрессивная
    Метод сжатия : С потерями
    Бит/(Пиксели*Кадры) : 0.296
    Размер потока : 1, 30 Гбайт (89%)
    Библиотека кодирования : XviD 1.2.1 (UTC 2008-12-04)
    Аудио
    Идентификатор : 1
    Формат : AC-3
    Формат/Информация : Audio Coding 3
    Расширение режима : CM (complete main)
    Параметр Endianness формата : Big
    Идентификатор кодека : 2000
    Продолжительность : 1 ч. 54 м.
    Вид битрейта : Постоянный
    Битрейт : 192 Кбит/сек
    Каналы : 2 канала
    Расположение каналов : Front: L R
    Частота : 48, 0 КГц
    Частота кадров : 31, 250 кадров/сек (1536 spf)
    Метод сжатия : С потерями
    Размер потока : 157 Мбайт (11%)
    Выравнивание : Разделение по промежуткам
    Продолжительность промежутка : 40 мс. (1, 00 видеокадр)
    Время предзагрузки промежутка : 500 мс.

    Скриншоты

    Залил: Zha-4k-e

    Онлайн видео Парни со стволами


    Размер скачиваемого торрента: 1.46 GB (1563899904 Bytes)

    Парни со стволами/War Dogs (2016) TS | D
    загрузка...
    Рейтинг →
     (голосов: 1, оценка 3/5, голосовать можно 1 раз )

    Другие торренты по теме:

  • Парни со стволами / War Dogs (2016) BDRip 720p | Line
  • Парни со стволами / War Dogs (2016) BDRip 1080p | iTunes
  • Парни со стволами / War Dogs (2016) BDRip 720p | iTunes
  • Парни со стволами / War Dogs (2016) BDRip-AVC от VickNet | iTunes
  • Парни со стволами / War Dogs (2016) BDRip 1080p от New-Team qqss44 | iTunes
  • Парни со стволами / War Dogs (2016) BDRip-AVC от R.G.Resident | iTunes
  • Парни со стволами / War Dogs (2016) BDRip от MegaPeer | iTunes
  • Парни со стволами / War Dogs (2016) HDRip от Scarabey | iTunes


    • Комментарии (0):

      Информация

      Информация

        Посетители, находящиеся в группе Гости, не могут оставлять комментарии в данной новости.

        ↓ Меню



        ↓ Опрос

        А Вы добавили сайт в закладки?
        Да
        Не


        Top 10 за месяц (Фильмы)