.
Авторизация | Регистрация
Хочешь лучшие торренты? Добавь свой email!
Добавить
» » Иллюзия обмана 2 / Now You See Me 2 (2016) BDRip 1080p от ExKinoRay | US Transfer | Лицензия скачать торрент бесплатно




    Иллюзия обмана 2 / Now You See Me 2 (2016) BDRip 1080p от ExKinoRay | US Transfer | Лицензия скачать торрент бесплатно

    Опубликовал: Админ | Дата: 29-08-2016, 05:00 | Просмотров: 41



    Детально о кино
    Русское название: Иллюзия обмана 2
    Русское название в мировом прокате: Now You See Me 2
    Создали в: 2016
    Категория жанра: Триллер, криминал
    Главный режиссер: Джон М. Чу

    Актеры
    Джесси Айзенберг, Лиззи Каплан, Дэниэл Рэдклифф, Марк Руффало, Морган Фримен, Майкл Кейн, Вуди Харрельсон, Дэйв Франко, Санаа Лэтэн
    О фильме:
    Труппа уличных фигляров и скоморохов из уездного шапито под названием Четыре всадника достигла невиданных вершин мастерства в насаждении массового психоза. Демонстрируемые ими фокусы вышли на новый уровень технологического прогресса, оставляя после себя множество бесчувственных, временно не подлежащих идентификации тел, застывших в причудливых позах. Но враги не дремлют и засылают в глубокий тыл Всадникам злобного техноманьяка.

    Снималось в: США
    Киностудия: Lionsgate, Summit Entertainment
    Время просмотра: 02: 09: 13
    Перевод текста: Дублированный | Лицензия Blu-Ray US Transfer
    Файл
    Кодек для видео: MPEG-4
    Качество фильма: BDRip 1080p
    Информация о видео: 1920x800, 12.1 Mbit/s, 23.976 fps
    Информация о звуке:
    Информация о звуке #01: 48 kHz, DTS, 5.1, 1510 Kbps | Лицензия Blu-Ray US Transfer |
    Информация о звуке #02: 48 kHz, AC3, 5.1, 640 Kbps | Лицензия Blu-Ray US Transfer |
    Информация о звуке #03: 48 kHz, DTS, 5.1, 1510 kbps | Оригинал |
    Субтитры: Английские

    MI
    General
    Unique ID : 231005339015502089991167649759482662016 (0xADCA028D8BE6D78084EC0130D860CC80)
    Complete name : G: VideoNow.You.See.Me.2.2016.BDRip.1080p.ExKinoRay.mkv
    Format : Matroska
    Format version : Version 4/Version 2
    File size : 13.4 GiB
    Duration : 2 h 9 min
    Overall bit rate : 14.8 Mb/s
    Movie name : Now.You.See.Me.2.2016.BDRip.1080p.ExKinoRay
    Encoded date : UTC 2016-08-28 19: 54: 46
    Writing application : mkvmerge v8.3.0 (;Over the Horizon;) 64bit
    Writing library : libebml v1.3.1 + libmatroska v1.4.2
    Video
    ID : 1
    Format : AVC
    Format/Info : Advanced Video Codec
    Format profile : High@L4.1
    Format settings, CABAC : Yes
    Format settings, ReFrames : 5 frames
    Codec ID : V_MPEG4/ISO/AVC
    Duration : 2 h 9 min
    Bit rate : 12.1 Mb/s
    Width : 1 920 pixels
    Height : 800 pixels
    Display aspect ratio : 2.40: 1
    Frame rate mode : Constant
    Frame rate : 23.976 (24000/1001) FPS
    Color space : YUV
    Chroma subsampling : 4: 2: 0
    Bit depth : 8 bits
    Scan type : Progressive
    Bits/(Pixel*Frame) : 0.328
    Stream size : 10.9 GiB (81%)
    Writing library : x264 core 146 r2538 121396c
    Encoding settings : cabac=1/ref=5/deblock=1: -3: -3/analyse=0x3: 0x133/me=tesa/subme=11/psy=1/psy_rd=1.04: 0.00/mixed_ref=1/me_range=32/chroma_me=1/trellis=2/8x8dct=1/cqm=0/deadzone=21, 11/fast_pskip=0/chroma_qp_offset=-2/threads=60/lookahead_threads=6/sliced_threads=0/nr=0/decimate=0/interlaced=0/bluray_compat=0/constrained_intra=0/bframes=10/b_pyramid=2/b_adapt=2/b_bias=0/direct=3/weightb=1/open_gop=0/weightp=2/keyint=240/keyint_min=23/scenecut=40/intra_refresh=0/rc_lookahead=150/rc=crf/mbtree=0/crf=17.5/qcomp=0.50/qpmin=0/qpmax=69/qpstep=4/vbv_maxrate=62500/vbv_bufsize=78125/crf_max=0.0/nal_hrd=none/filler=0/ip_ratio=1.40/pb_ratio=1.30/aq=1: 0.80/zones=0, 449, b=0.4
    Language : English
    Default : Yes
    Forced : No
    Audio #1
    ID : 2
    Format : DTS
    Format/Info : Digital Theater Systems
    Mode : 16
    Format settings, Endianness : Big
    Codec ID : A_DTS
    Duration : 2 h 9 min
    Bit rate mode : Constant
    Bit rate : 1 509 kb/s
    Channel(s) : 6 channels
    Channel positions : Front: L C R, Side: L R, LFE
    Sampling rate : 48.0 kHz
    Frame rate : 93.750 FPS (512 spf)
    Bit depth : 16 bits
    Compression mode : Lossy
    Stream size : 1.37 GiB (10%)
    Title : DUB-DTS US Transfer
    Language : Russian
    Default : Yes
    Forced : No
    Audio #2
    ID : 3
    Format : AC-3
    Format/Info : Audio Coding 3
    Mode extension : CM (complete main)
    Format settings, Endianness : Big
    Codec ID : A_AC3
    Duration : 2 h 9 min
    Bit rate mode : Constant
    Bit rate : 640 kb/s
    Channel(s) : 6 channels
    Channel positions : Front: L C R, Side: L R, LFE
    Sampling rate : 48.0 kHz
    Frame rate : 31.250 FPS (1536 spf)
    Compression mode : Lossy
    Stream size : 594 MiB (4%)
    Title : DUB-AC3 US Transfer
    Language : Russian
    Default : No
    Forced : No
    Audio #3
    ID : 4
    Format : AC-3
    Format/Info : Audio Coding 3
    Mode extension : CM (complete main)
    Format settings, Endianness : Big
    Codec ID : A_AC3
    Duration : 2 h 9 min
    Bit rate mode : Constant
    Bit rate : 640 kb/s
    Channel(s) : 6 channels
    Channel positions : Front: L C R, Side: L R, LFE
    Sampling rate : 48.0 kHz
    Frame rate : 31.250 FPS (1536 spf)
    Compression mode : Lossy
    Stream size : 592 MiB (4%)
    Title : Original
    Language : English
    Default : No
    Forced : No
    Text #1
    ID : 5
    Format : UTF-8
    Codec ID : S_TEXT/UTF8
    Codec ID/Info : UTF-8 Plain Text
    Duration : 2 h 0 min
    Bit rate : 81 b/s
    Count of elements : 1934
    Stream size : 72.0 KiB (0%)
    Title : Full
    Language : English
    Default : No
    Forced : No
    Text #2
    ID : 6
    Format : UTF-8
    Codec ID : S_TEXT/UTF8
    Codec ID/Info : UTF-8 Plain Text
    Duration : 2 h 0 min
    Bit rate : 88 b/s
    Count of elements : 2115
    Stream size : 78.0 KiB (0%)
    Title : SDH
    Language : English
    Default : No
    Forced : No
    Menu
    00: 00: 00.000 : en: 00: 00: 00.000
    00: 07: 05.133 : en: 00: 07: 05.133
    00: 16: 03.838 : en: 00: 16: 03.838
    00: 25: 29.570 : en: 00: 25: 29.570
    00: 33: 16.828 : en: 00: 33: 16.828
    00: 39: 57.645 : en: 00: 39: 57.645
    00: 48: 07.718 : en: 00: 48: 07.718
    00: 53: 34.711 : en: 00: 53: 34.711
    01: 03: 53.246 : en: 01: 03: 53.246
    01: 14: 00.561 : en: 01: 14: 00.561
    01: 20: 23.569 : en: 01: 20: 23.569
    01: 26: 37.400 : en: 01: 26: 37.400
    01: 32: 37.051 : en: 01: 32: 37.051
    01: 38: 46.837 : en: 01: 38: 46.837
    01: 48: 13.529 : en: 01: 48: 13.529
    01: 54: 04.921 : en: 01: 54: 04.921
    Скриншоты

    Релиз подготовил: Автор релиза:

    Онлайн видео Иллюзия обмана 2


    Размер скачиваемого торрента: 13.43 GB (14415368198 Bytes)

    Иллюзия обмана 2/Now You See Me 2 (2016) BDRip 1080p от ExKinoRay | US Transfer | Лицензия
    загрузка...
    Рейтинг →
     (голосов: 1, оценка 3/5, голосовать можно 1 раз )

    Другие торренты по теме:

  • Иллюзия обмана / Now You See Me (2012) HDRip | D | Трейлер
  • Иллюзия обмана / Now You See Me (2013) HDRip | Звук с TS
  • Иллюзия обмана / Now You See Me (2013) BDRip 1080p | iTunes
  • Иллюзия обмана / Now You See Me (2013) Blu-Ray Remux 1080p | iTunes
  • Иллюзия обмана / Now You See Me (2013) HDRip | iTunes
  • Иллюзия обмана / Now You See Me (2013) BDRip 720p от INTERCINEMA | iTunes
  • Иллюзия обмана / Now You See Me (2013) BDRip-AVC от leonardo 59 Scarabey | iTunes Russia
  • Иллюзия обмана / Now You See Me (2013) HDRip от -=HD-NET=- | КПК | iTunes Russia


    • Комментарии (0):

      Информация

      Информация

        Посетители, находящиеся в группе Гости, не могут оставлять комментарии в данной новости.

        ↓ Меню



        ↓ Опрос

        А Вы добавили сайт в закладки?
        Да
        Не


        Top 10 за месяц (Фильмы)