.
Авторизация | Регистрация
Хочешь лучшие торренты? Добавь свой email!
Добавить
» » Деметрий и гладиаторы / Demetrius and the Gladiators (1954) BDRip от Koenig | P скачать торрент бесплатно




    Деметрий и гладиаторы / Demetrius and the Gladiators (1954) BDRip от Koenig | P скачать торрент бесплатно

    Опубликовал: Админ | Дата: 28-08-2016, 05:00 | Просмотров: 20



    Детально о кино
    Русское название: Деметрий и гладиаторы
    Русское название в мировом прокате: Demetrius and the Gladiators
    Создали в: 1954
    Категория жанра: Боевик, драма, история
    Главный режиссер: Дэлмер Дэйвс

    Актеры
    Виктор Мэтьюр, Сьюзен Хэйуорд, Майкл Ренни, Дебра Пейджит, Энн Бэнкрофт, Джей Робинсон, Бэрри Джонс, Уильям Маршалл (II), Ричард Иган, Эрнест Боргнайн

    Сюжет фильма

    Своенравный римский император Калигула отправляет своих центурионов, чтобы найти багряницу — одеяние Христа при восхождении на Голгофу. Герой Виктора Матуре — бывший раб, а ныне вольноотпущенник Деметрий, неистовый приверженец христианской веры, скрывает плащаницу, за что и попадает на арену цирка в качестве гладиатора. Безумный император Калигула любил, когда на его глазах проливается кровь рабов сражающихся межу собой или с дикими хищниками. Новому гладиатору предстоит сразиться с тремя тиграми и вступить в смертельный поединок с пятеркой лучших гладиаторов Рима. Он с честью одержит победу в этих кровавых боях.

    Снималось в: США
    Киностудия: Twentieth Century Fox Film Corporation
    Время просмотра: 01: 41: 07
    Перевод текста: Профессиональный многоголосый (20-й Век Фокс СНГ)
    Файл
    Качество фильма: BDRip(DEMETRIUS_AND_THE_GLADIATORS_1954_BD-REMUX_HDCLUB)
    Информация о видео: XviD, 1654 Кбит/с, 688x272, 23.976 кадр/с
    Информация о звуке: АС3, 6 ch, 384 Кбит/с
    MediaInfo
    Общее
    Полное имя : Demetrius.and.the.Gladiators.1954.BDRip.avi
    Формат : AVI
    Формат/Информация : Audio Video Interleave
    Размер файла : 1, 45 Гбайт
    Продолжительность : 1 ч. 41 м.
    Общий поток : 2048 Кбит/сек
    Программа кодирования : VirtualDubMod 1.5.10.2 (build 2540/release)
    Библиотека кодирования : VirtualDubMod build 2540/release
    Видео
    Идентификатор : 0
    Формат : MPEG-4 Visual
    Профиль формата : Advanced Simple@L5
    Параметр BVOP формата : 1
    Параметр QPel формата : Нет
    Параметр GMC формата : Без точки перехода
    Параметр матрицы формата : Default (MPEG)
    Идентификатор кодека : XVID
    Идентификатор кодека/Подсказка : XviD
    Продолжительность : 1 ч. 41 м.
    Битрейт : 1654 Кбит/сек
    Ширина : 688 пикселей
    Высота : 272 пикселя
    Соотношение сторон : 2, 529
    Частота кадров : 23, 976 (23976/1000) кадра/сек
    Цветовое пространство : YUV
    Субдискретизация насыщенности : 4: 2: 0
    Битовая глубина : 8 бит
    Тип развёртки : Прогрессивная
    Метод сжатия : С потерями
    Бит/(Пиксели*Кадры) : 0.369
    Размер потока : 1, 17 Гбайт (81%)
    Библиотека кодирования : XviD 1.2.0.dev47 (UTC 2006-11-01)
    Аудио
    Идентификатор : 1
    Формат : AC-3
    Формат/Информация : Audio Coding 3
    Расширение режима : CM (complete main)
    Параметр Endianness формата : Big
    Идентификатор кодека : 2000
    Продолжительность : 1 ч. 41 м.
    Вид битрейта : Постоянный
    Битрейт : 384 Кбит/сек
    Каналы : 6 каналов
    Расположение каналов : Front: L C R, Side: L R, LFE
    Частота : 48, 0 КГц
    Частота кадров : 31, 250 кадров/сек (1536 spf)
    Метод сжатия : С потерями
    Размер потока : 278 Мбайт (19%)
    Выравнивание : Разделение по промежуткам
    Продолжительность промежутка : 42 мс. (1, 00 видеокадр)
    Время предзагрузки промежутка : 500 мс.
    Скриншоты

    Залил: Koenig602

    Онлайн видео Деметрий и гладиаторы


    Размер скачиваемого торрента: 1.45 GB (1552865280 Bytes)

    Деметрий и гладиаторы/Demetrius and the Gladiators (1954) BDRip от Koenig | P
    загрузка...
    Рейтинг →
     (голосов: 1, оценка 3/5, голосовать можно 1 раз )

    Другие торренты по теме:

  • Деметрий и гладиаторы / Demetrius and the Gladiators (1954) BDRip 720р от KORSAR | P


    • Комментарии (0):

      Информация

      Информация

        Посетители, находящиеся в группе Гости, не могут оставлять комментарии в данной новости.

        ↓ Меню



        ↓ Опрос

        А Вы добавили сайт в закладки?
        Да
        Не


        Top 10 за месяц (Фильмы)