.
Авторизация | Регистрация
Хочешь лучшие торренты? Добавь свой email!
Добавить
» » Равные / Equals (2015) BDRip 1080p от ExKinoRay | Лицензия скачать торрент бесплатно




    Равные / Equals (2015) BDRip 1080p от ExKinoRay | Лицензия скачать торрент бесплатно

    Опубликовал: Админ | Дата: 27-08-2016, 05:01 | Просмотров: 61



    Детально о кино
    Русское название: Равные
    Русское название в мировом прокате: Equals
    Создали в: 2015
    Категория жанра: Фантастика, драма, мелодрама
    Главный режиссер: Дрейк Доримус

    Актеры
    Николас Холт, Кристен Стюарт, Гай Пирс, Джеки Уивер, Тоби Хасс, Дэвид Шелби, Кейт Лин Шейл, Ребекка Хэзлвуд, Тео Ю, Аврора Периньо, Скотт Лоуренс, Бел Паули, Том Стоукс, Кай Леннокс, Су-хён
    О фильме:
    Фильм Равные рассказывает историю Сайласа, который живет в будущем, в обществе, названном Коллектив. Жители этого современного мира — новое поколение людей, называемое Равными. Равные — это мирные, спокойные, вежливые и справедливые люди, и жизнь в Коллективе идеальна. В нем не существует ни бедности, ни жадности, ни насилия, ни эмоций… Но над обществом нависает новая угроза: заболевание SOS или Синдром Общественной Сознательности, жертвы которого подвергаются всему, чего, как они думали, избежали: депрессия, уязвимость, страх, любовь. Если правительство обнаружит человека, зараженного SOS, его сразу же заберут в Нору, после чего этого человека уже никто и никогда не увидит. Когда главный герой обнаруживает, что он тоже заражен, он становится изгоем, но замечает одного человека, который, как ему кажется, понимает через что ему приходится проходить. В это время правительство заявляет о том, что лекарство от болезни включенных эмоций было найдено, и главные герои вынуждены искать способ выжить.

    Снималось в: США
    Киностудия: Freedom Media, Infinite Frameworks Studios, Route One Films, Scott Free Productions
    Время просмотра: 01: 42: 21
    Перевод текста: Дублированный | Лицензия
    Файл
    Кодек для видео: MPEG-4
    Качество фильма: BDRip 1080p
    Информация о видео: 1920x1080, 17.0 Mbit/s, 25.000 fps
    Информация о звуке:
    Информация о звуке #01: 48 kHz, DTS, 5.1, 1536 Kbps | Дублированный, Лицензия |
    Информация о звуке #02: 48 kHz, AC3, 5.1, 640 Kbps | Дублированный, Лицензия |
    Информация о звуке #03: 48 kHz, DTS, 5.1, 1510 kbps | Оригинал |

    MI
    General
    Unique ID : 193202557238279740443244087287073872556 (0x915975831AA3A064A5709C2DBFC61AAC)
    Complete name : G: VideoEquals.2016.D.BDRip.1080p.ExKinoRay.mkv
    Format : Matroska
    Format version : Version 4/Version 2
    File size : 14.7 GiB
    Duration : 1 h 41 min
    Overall bit rate : 20.7 Mb/s
    Movie name : Equals.2016.D.BDRip.1080p.ExKinoRay
    Encoded date : UTC 2016-08-25 02: 49: 19
    Writing application : mkvmerge v8.3.0 (;Over the Horizon;) 64bit
    Writing library : libebml v1.3.1 + libmatroska v1.4.2
    Video
    ID : 1
    Format : AVC
    Format/Info : Advanced Video Codec
    Format profile : High@L4.1
    Format settings, CABAC : Yes
    Format settings, ReFrames : 4 frames
    Codec ID : V_MPEG4/ISO/AVC
    Duration : 1 h 41 min
    Bit rate : 17.0 Mb/s
    Width : 1 920 pixels
    Height : 1 080 pixels
    Display aspect ratio : 16: 9
    Frame rate mode : Constant
    Frame rate : 25.000 FPS
    Color space : YUV
    Chroma subsampling : 4: 2: 0
    Bit depth : 8 bits
    Scan type : Progressive
    Bits/(Pixel*Frame) : 0.328
    Stream size : 12.1 GiB (82%)
    Writing library : x264 core 148 r2705 3f5ed56
    Encoding settings : cabac=1/ref=4/deblock=1: -3: -3/analyse=0x3: 0x133/me=umh/subme=11/psy=1/psy_rd=1.00: 0.00/mixed_ref=1/me_range=48/chroma_me=1/trellis=2/8x8dct=1/cqm=0/deadzone=21, 11/fast_pskip=0/chroma_qp_offset=-2/threads=18/lookahead_threads=4/sliced_threads=0/nr=0/decimate=1/interlaced=0/bluray_compat=0/constrained_intra=0/bframes=12/b_pyramid=2/b_adapt=2/b_bias=0/direct=1/weightb=1/open_gop=0/weightp=2/keyint=240/keyint_min=24/scenecut=40/intra_refresh=0/rc_lookahead=60/rc=crf/mbtree=0/crf=17.3/qcomp=0.60/qpmin=0/qpmax=69/qpstep=4/vbv_maxrate=50000/vbv_bufsize=62500/crf_max=0.0/nal_hrd=none/filler=0/ip_ratio=1.35/pb_ratio=1.25/aq=1: 0.80
    Language : English
    Default : Yes
    Forced : No
    Audio #1
    ID : 2
    Format : DTS
    Format/Info : Digital Theater Systems
    Mode : 16
    Format settings, Endianness : Big
    Codec ID : A_DTS
    Duration : 1 h 41 min
    Bit rate mode : Constant
    Bit rate : 1 536 kb/s
    Channel(s) : 6 channels
    Channel positions : Front: L C R, Side: L R, LFE
    Sampling rate : 48.0 kHz
    Frame rate : 93.750 FPS (512 spf)
    Bit depth : 16 bits
    Compression mode : Lossy
    Stream size : 1.09 GiB (7%)
    Language : Russian
    Default : Yes
    Forced : No
    Audio #2
    ID : 3
    Format : AC-3
    Format/Info : Audio Coding 3
    Mode extension : CM (complete main)
    Format settings, Endianness : Big
    Codec ID : A_AC3
    Duration : 1 h 41 min
    Bit rate mode : Constant
    Bit rate : 640 kb/s
    Channel(s) : 6 channels
    Channel positions : Front: L C R, Side: L R, LFE
    Sampling rate : 48.0 kHz
    Frame rate : 31.250 FPS (1536 spf)
    Compression mode : Lossy
    Stream size : 466 MiB (3%)
    Language : Russian
    Default : No
    Forced : No
    Audio #3
    ID : 4
    Format : DTS
    Format/Info : Digital Theater Systems
    Mode : 16
    Format settings, Endianness : Big
    Codec ID : A_DTS
    Duration : 1 h 41 min
    Bit rate mode : Constant
    Bit rate : 1 509 kb/s
    Channel(s) : 6 channels
    Channel positions : Front: L C R, Side: L R, LFE
    Sampling rate : 48.0 kHz
    Frame rate : 93.750 FPS (512 spf)
    Bit depth : 24 bits
    Compression mode : Lossy
    Stream size : 1.07 GiB (7%)
    Language : English
    Default : No
    Forced : No
    Menu
    00: 00: 00.000 : en: Chapter 01
    00: 05: 23.281 : en: Chapter 02
    00: 10: 12.987 : en: Chapter 03
    00: 15: 53.202 : en: Chapter 04
    00: 20: 13.546 : en: Chapter 05
    00: 23: 41.462 : en: Chapter 06
    00: 28: 51.229 : en: Chapter 07
    00: 33: 30.383 : en: Chapter 08
    00: 39: 37.208 : en: Chapter 09
    00: 45: 05.286 : en: Chapter 10
    00: 49: 43.105 : en: Chapter 11
    00: 53: 26.954 : en: Chapter 12
    00: 58: 40.392 : en: Chapter 13
    01: 02: 42.467 : en: Chapter 14
    01: 08: 22.598 : en: Chapter 15
    01: 12: 51.075 : en: Chapter 16
    01: 17: 35.401 : en: Chapter 17
    01: 20: 58.270 : en: Chapter 18
    01: 26: 11.500 : en: Chapter 19
    01: 31: 42.247 : en: Chapter 20
    Скриншоты

    Релиз подготовил: Автор релиза:

    Онлайн видео Равные


    Размер скачиваемого торрента: 14.72 GB (15806982647 Bytes)

    Равные/Equals (2015) BDRip 1080p от ExKinoRay | Лицензия
    загрузка...
    Рейтинг →
     (голосов: 1, оценка 4/5, голосовать можно 1 раз )

    Другие торренты по теме:

  • Равные / Equals (2015)
  • Равные / Equals (2015) WEB-DLRip 720p | L2
  • Равные / Equals (2015) WEB-DLRip | L2
  • Равные / Equals (2015) WEB-DLRip | Line
  • Равные / Equals (2015) WEB-DL 1080p | Line
  • Равные / Equals (2015) WEB-DLRip от Scarabey | iTunes
  • Равные / Equals (2015) BDRip 1080p от ExKinoRay | Лицензия
  • Равные / Equals (2015) BDRip от MegaPeer | Лицензия


    • Комментарии (0):

      Информация

      Информация

        Посетители, находящиеся в группе Гости, не могут оставлять комментарии в данной новости.

        ↓ Меню



        ↓ Опрос

        А Вы добавили сайт в закладки?
        Да
        Не


        Top 10 за месяц (Фильмы)