.
Авторизация | Регистрация
Хочешь лучшие торренты? Добавь свой email!
Добавить
» » Темнота / The Darkness (2016) HDRip от Portablius | L2 скачать торрент бесплатно




    Темнота / The Darkness (2016) HDRip от Portablius | L2 скачать торрент бесплатно

    Опубликовал: Админ | Дата: 27-08-2016, 05:00 | Просмотров: 8



    Детально о кино
    Русское название: Темнота
    Русское название в мировом прокате: The Darkness
    Создали в: 2016
    Категория жанра: ужасы, триллер
    Главный режиссер: Грег МакЛин

    Актеры
    Дженнифер Моррисон, Кевин Бейкон, Минг-На, Рада Митчелл, Люси Фрай, Тара Барр, Дэвид Мазоуз,
    Мэтт Уолш, Пол Райзер

    Сюжет фильма
    После отпуска в Гранд-Каньоне семья возвращается домой, невольно прихватив с собой нечто
    сверхъестественное. Не заставив себя долго ждать, это нечто начинает питаться их страхами и секретами…


    Снималось в: США
    Киностудия: Blumhouse Productions, Chapter One Films
    Время просмотра: 01: 32: 21
    Перевод текста: Любительский (двухголосый, закадровый) | RecentFilms
    Субтитры: Нет
    Семпл
    Файл
    Кодек для видео: XviD
    Качество фильма: HDRip
    Информация о видео: 720x304 (2.37: 1), 23.976 fps, XviD build 73 ~931 kbps avg, 0.18 bit/pixel
    Информация о звуке: 48 kHz, MPEG Layer 3, 2 ch, ~192.00 kbps avg
    MediaInfo
    Общее
    Полное имя : The.Darkness.2016.HDRip.ot.Portablius.avi
    Формат : AVI
    Формат/Информация : Audio Video Interleave
    Размер файла : 749 Мбайт
    Продолжительность : 1 ч. 32 м.
    Общий поток : 1133 Кбит/сек
    Программа кодирования : VirtualDubMod 1.5.10.3 | www.virtualdub-fr.org || (build
    2550/release)
    Библиотека кодирования : VirtualDubMod build 2550/release
    Видео
    Идентификатор : 0
    Формат : MPEG-4 Visual
    Профиль формата : Advanced Simple@L5
    Параметр BVOP формата : 1
    Параметр QPel формата : Нет
    Параметр GMC формата : Без точки перехода
    Параметр матрицы формата : Выборочная
    Идентификатор кодека : XVID
    Идентификатор кодека/Подсказка : XviD
    Продолжительность : 1 ч. 32 м.
    Битрейт : 932 Кбит/сек
    Ширина : 720 пикселей
    Высота : 304 пикселя
    Соотношение сторон : 2, 35: 1
    Частота кадров : 23, 976 (23976/1000) кадра/сек
    Цветовое пространство : YUV
    Субдискретизация насыщенности : 4: 2: 0
    Битовая глубина : 8 бит
    Тип развёртки : Прогрессивная
    Метод сжатия : С потерями
    Бит/(Пиксели*Кадры) : 0.178
    Размер потока : 616 Мбайт (82%)
    Библиотека кодирования : XviD 73
    Аудио
    Идентификатор : 1
    Формат : MPEG Audio
    Версия формата : Version 1
    Профиль формата : Layer 3
    Идентификатор кодека : 55
    Идентификатор кодека/Подсказка : MP3
    Продолжительность : 1 ч. 32 м.
    Вид битрейта : Постоянный
    Битрейт : 192 Кбит/сек
    Каналы : 2 канала
    Частота : 48, 0 КГц
    Метод сжатия : С потерями
    Размер потока : 127 Мбайт (17%)
    Выравнивание : Соединение по промежуткам
    Продолжительность промежутка : 42 мс. (1, 00 видеокадр)
    Время предзагрузки промежутка : 504 мс.
    Библиотека кодирования : LAME3.99r
    Залил: Evgen Portable

    Онлайн видео Темнота


    Размер скачиваемого торрента: 748.67 MB (785037312 Bytes)


    Темнота/The Darkness (2016) HDRip от Portablius | L2
    загрузка...
    Рейтинг →
     (голосов: 1, оценка 3/5, голосовать можно 1 раз )

    Другие торренты по теме:

  • Темнота наступает / Darkness Falls (2003) BDRip | D
  • Темнота наступает / Darkness Falls (2003) BDRip 720p | D, P, P2
  • Темнота / The Darkness (2016) HDRip | L2
  • Темнота / The Darkness (2016) BDRip 720p | L2
  • Темнота / The Darkness (2016) BDRip 1080p от ExKinoRay | L
  • Темнота / The Darkness (2016) HDRip от MegaPeer | L
  • Темнота / The Darkness (2016) HDRip от MegaPeer | L
  • Темнота / The Darkness (2016) DVD-5 от NovaLan| L


    • Комментарии (0):

      Информация

      Информация

        Посетители, находящиеся в группе Гости, не могут оставлять комментарии в данной новости.

        ↓ Меню



        ↓ Опрос

        А Вы добавили сайт в закладки?
        Да
        Не


        Top 10 за месяц (Фильмы)