.
Авторизация | Регистрация
Хочешь лучшие торренты? Добавь свой email!
Добавить
» » Великан-эгоист / The Selfish Giant (2013) HDRip от Portablius | L1 скачать торрент бесплатно




    Великан-эгоист / The Selfish Giant (2013) HDRip от Portablius | L1 скачать торрент бесплатно

    Опубликовал: Админ | Дата: 26-08-2016, 05:00 | Просмотров: 82



    Детально о кино
    Русское название: Великан-эгоист
    Русское название в мировом прокате: The Selfish Giant
    Создали в: 2013
    Категория жанра: драма
    Главный режиссер: Клио Барнард

    Актеры
    Коннер Чепмен, Шон Томас, Ралф Айнесон, Йен Берфилд, Шон Джилдер, Лоррейн Эшборн, Эллиотт Титтенсор, Ребекка Мэнли

    Сюжет фильма
    Современная история о буднях парочки закадычных друзей из люмпенского района Брэдфорда — буйного подростка Арбора и добродушного увальня Свифти...

    Снималось в: Великобритания
    Киностудия: British Film Institute (BFI), Film4, Moonspun Films
    Время просмотра: 01: 30: 35
    Перевод текста: Любительский (одноголосый, закадровый) | viktor_2838
    Субтитры: Нет
    ПРИСУТСТВУЕТ НЕНОРМАТИВНАЯ ЛЕКСИКА!
    Семпл
    Файл
    Кодек для видео: XviD
    Качество фильма: HDRip
    Информация о видео: 656x352 (1.86: 1), 24 fps, XviD build 73 ~1013 kbps avg, 0.18 bit/pixel
    Информация о звуке: 48 kHz, MPEG Layer 3, 2 ch, ~128.00 kbps avg
    MediaInfo
    Общее
    Полное имя : The.Selfish.Giant.2013.HDRip.ot.Portablius.avi
    Формат : AVI
    Формат/Информация : Audio Video Interleave
    Размер файла : 746 Мбайт
    Продолжительность : 1 ч. 30 м.
    Общий поток : 1151 Кбит/сек
    Программа кодирования : VirtualDubMod 1.5.10.3 | www.virtualdub-fr.org || (build 2550/release)
    Библиотека кодирования : VirtualDubMod build 2550/release
    Видео
    Идентификатор : 0
    Формат : MPEG-4 Visual
    Профиль формата : Advanced Simple@L5
    Параметр BVOP формата : 1
    Параметр QPel формата : Нет
    Параметр GMC формата : Без точки перехода
    Параметр матрицы формата : Выборочная
    Идентификатор кодека : XVID
    Идентификатор кодека/Подсказка : XviD
    Продолжительность : 1 ч. 30 м.
    Битрейт : 1014 Кбит/сек
    Ширина : 656 пикселей
    Высота : 352 пикселя
    Соотношение сторон : 1, 85: 1
    Частота кадров : 24, 000 кадра/сек
    Цветовое пространство : YUV
    Субдискретизация насыщенности : 4: 2: 0
    Битовая глубина : 8 бит
    Тип развёртки : Прогрессивная
    Метод сжатия : С потерями
    Бит/(Пиксели*Кадры) : 0.183
    Размер потока : 657 Мбайт (88%)
    Библиотека кодирования : XviD 73
    Аудио
    Идентификатор : 1
    Формат : MPEG Audio
    Версия формата : Version 1
    Профиль формата : Layer 3
    Идентификатор кодека : 55
    Идентификатор кодека/Подсказка : MP3
    Продолжительность : 1 ч. 30 м.
    Вид битрейта : Постоянный
    Битрейт : 128 Кбит/сек
    Каналы : 2 канала
    Частота : 48, 0 КГц
    Метод сжатия : С потерями
    Размер потока : 82, 9 Мбайт (11%)
    Выравнивание : Соединение по промежуткам
    Продолжительность промежутка : 42 мс. (1, 00 видеокадр)
    Время предзагрузки промежутка : 504 мс.
    Библиотека кодирования : LAME3.99r
    Залил: Evgen Portable

    Онлайн видео Великан-эгоист


    Размер скачиваемого торрента: 745.78 MB (782006272 Bytes)


    Великан-эгоист/The Selfish Giant (2013) HDRip от Portablius | L1
    загрузка...
    Рейтинг →
     (голосов: 1, оценка 3/5, голосовать можно 1 раз )

    Другие торренты по теме:

  • Великан-эгоист / The Selfish Giant (2013) BDRip 1080p | L1


    • Комментарии (0):

      Информация

      Информация

        Посетители, находящиеся в группе Гости, не могут оставлять комментарии в данной новости.

        ↓ Меню



        ↓ Опрос

        А Вы добавили сайт в закладки?
        Да
        Не


        Top 10 за месяц (Фильмы)