.
Авторизация | Регистрация
Хочешь лучшие торренты? Добавь свой email!
Добавить
» » Гений / Genius (2016) WEB-DLRip 1080p | Звук TS скачать торрент бесплатно




    Гений / Genius (2016) WEB-DLRip 1080p | Звук TS скачать торрент бесплатно

    Опубликовал: Админ | Дата: 25-08-2016, 14:37 | Просмотров: 194937



    Гений / Die tausend Seiten einer Freundschaft / Genius
    Снималось в: ВеликобританияСША
    Создали в: Desert Wolf Productions, Michael Grandage Company, Riverstone Pictures
    Создали в: 2016
    Категория жанра: драма, биография
    Время просмотра: 01: 43: 52
    Главный режиссер: Майкл Грандадж
    Авторы сценария: Джон Логан, А. Скотт Берг

    Актеры
    Николь Кидман, Колин Фёрт, Гай Пирс, Джуд Лоу, Лора Линни, Доминик Уэст, Ванесса Кирби, Марк Арнольд, Джой Иза
    Описание: История о непростой дружбе двух очень талантливых людей: писателя Томаса Вулфа и издателя Макса Перкинса, открывшего всему миру таких великих романистов, как Ф. Скотт Фицджеральд и Эрнест Хемингуэй...

    Перевод текста: Профессиональный (полное дублирование) | Информация о звуке TS
    Субтитры: нет
    Качество фильма: WEB-DL 1080p
    Тип видео: MKV
    Информация о видео кодек: AVC
    Информация о звуке кодек: АС3
    Информация о видео: 1912x796 (2.40: 1), 23.976 fps, MPEG-4 AVC ~4 154 kbps avg
    Информация о звуке: 48 kHz, AC3 Dolby Digital, 2/0 (L, R) ch, ~384 kbps
    Дата премьеры (мир): 16 февраля 2016
    Дата премьеры (РФ): 7 июля 2016, Централ Партнершип
    ПРИМЕЧАНИЕ: ПРИСУТСТВУЕТ РЕКЛАМА!
    Media Info
    General
    Уникальный идентификатор : 226458223007988550575829479209735036561 (0xAA5E446CBFCA1D5BA9E58D6906301E91)
    Полное имя : Genius.2016.Dt.WEB-DL.1O8OP_KOSHARA.mkv
    Формат : Matroska
    Версия формата : Version 2
    Размер файла : 3, 36 Гбайт
    Продолжительность : 1 ч. 43 м.
    Режим общего битрейта : Постоянный
    Общий поток : 4630 Кбит/сек
    Дата кодирования : UTC 2016-08-23 13: 47: 23
    Программа кодирования : mkvmerge v8.3.0 (;Over the Horizon;) 64bit
    Библиотека кодирования : libebml v1.3.1 + libmatroska v1.4.2
    Видео
    Идентификатор : 1
    Формат : AVC
    Формат/Информация : Advanced Video Codec
    Профиль формата : High@L4.1
    Параметр CABAC формата : Да
    Параметр ReFrames формата : 5 кадров
    Идентификатор кодека : V_MPEG4/ISO/AVC
    Продолжительность : 1 ч. 43 м.
    Вид битрейта : Постоянный
    Битрейт : 4154 Кбит/сек
    Номинальный битрейт : 4600 Кбит/сек
    Ширина : 1912 пикселей
    Высота : 796 пикселей
    Соотношение сторон : 2, 40: 1
    Режим частоты кадров : Постоянный
    Частота кадров : 23, 976 (24000/1001) кадра/сек
    Стандарт вещания : Component
    Цветовое пространство : YUV
    Субдискретизация насыщенности : 4: 2: 0
    Битовая глубина : 8 бит
    Тип развёртки : Прогрессивная
    Бит/(Пиксели*Кадры) : 0.114
    Размер потока : 3, 01 Гбайт (90%)
    Default : Да
    Forced : Нет
    Цветовой диапазон : Limited
    Основные цвета : BT.709
    Характеристики трансфера : BT.709
    Коэффициенты матрицы : BT.709
    Аудио
    Идентификатор : 2
    Формат : AC-3
    Формат/Информация : Audio Coding 3
    Расширение режима : CM (complete main)
    Параметр Endianness формата : Big
    Идентификатор кодека : A_AC3
    Продолжительность : 1 ч. 43 м.
    Вид битрейта : Постоянный
    Битрейт : 384 Кбит/сек
    Каналы : 2 канала
    Расположение каналов : Front: L R
    Частота : 48, 0 КГц
    Частота кадров : 31, 250 кадров/сек (1536 spf)
    Метод сжатия : С потерями
    Размер потока : 285 Мбайт (8%)
    Default : Да
    Forced : Нет

    Скриншоты

    Залил: Zha-4k-e
    Размер скачиваемого торрента: 3.36 GB (3606921487 Bytes)

    Гений/Genius (2016) WEB-DLRip 1080p | Звук TS
    загрузка...
    Рейтинг →
     (голосов: 1, оценка 5/5, голосовать можно 1 раз )

    Другие торренты по теме:

  • Гений / Genius (2016) WEB-DLRip | Line
  • Гений / Genius (2016) WEB-DLRip-AVC от R.G.Resident | iTunes
  • Гений / Genius (2016) WEB-DLRip от MegaPeer | iTunes
  • Гений / Genius (2016) HDRip от Scarabey | Лицензия
  • Гений / Genius (2016) BDRip от HQCLUB | Лицензия
  • Гений / Genius (2017) HDTVRip 720p | Sunshine Studio
  • Гений / Genius (2017) HDTVRip 720p | Jaskier
  • Гений / Genius (2017) WEB-DLRip 720p | IdeaFilm


    • Комментарии (0):

      Информация

      Информация

        Посетители, находящиеся в группе Гости, не могут оставлять комментарии в данной новости.

        ↓ Меню



        ↓ Опрос

        А Вы добавили сайт в закладки?
        Да
        Не


        Top 10 за месяц (Фильмы)