.
Авторизация | Регистрация
Хочешь лучшие торренты? Добавь свой email!
Добавить
» » Дивергент, глава 3: За стеной / Allegiant (2016) DVD5 | D скачать торрент бесплатно




    Дивергент, глава 3: За стеной / Allegiant (2016) DVD5 | D скачать торрент бесплатно

    Опубликовал: Админ | Дата: 23-08-2016, 05:00 | Просмотров: 121487



    Детально о кино
    Русское название: Дивергент, глава 3: За стеной
    Русское название в мировом прокате: Allegiant
    Создали в: 2016
    Категория жанра: фантастика, боевик, триллер, детектив, приключения
    Главный режиссер: Роберт Швентке

    Актеры
    Шейлин Вудли, Тео Джеймс, Энсел Элгорт, Зои Кравиц, Майлз Теллер, Джефф Дэниелс, Наоми Уоттс, Мэгги Кью, Билл Скарсгард, Кейнан Лонсдейл

    Сюжет фильма

    Трис и Фор впервые покидают город и своих близких и оказываются в опасном мире за стеной, отделяющей Чикаго, где им открывается шокирующая правда.
    Они должны быстро разобраться, кому можно доверять, так как битва, разгорающаяся за стенами города, угрожает всему человечеству. Чтобы выжить, Трис придется сделать непростой выбор между мужеством, верностью, любовью и необходимостью идти на жертвы.

    Снималось в: США
    Киностудия: Lionsgate, Red Wagon Productions, Summit Entertainment
    Время просмотра: 115 мин./01: 55
    Перевод текста: полное дублирование
    Файл
    Кодек для видео: MPEG2
    Качество фильма: DVD5 (сжатый)
    Информация о видео: PAL 16: 9 (720x576@1024x576) VBR 4999 Kbps, 25.000 fps
    Информация о звуке: Dolby AC3, 6 ch, 48.0 KHz, 448 Kbps
    Субтитры: отсутствуют
    Процесс изготовления диска
    Исходник: Дивергент, глава 3: За стеной/Allegiant (2016) DVD9 от New-Team | Лицензия
    Удалены: анонсы (в меню кнопки затерты). Команды диска переписаны заново, оставлен один VTS.
    Информация о видео сжато на 35%
    Меню: статичное, недействующие кнопки затерты и закрыты.
    Обработка и сжатие: DVD ReMake Pro + DVD Rebuilder + CCE SP2 7 проходов + Работа с меню (Adobe PhotoShop и MuxMan).
    Автор релиза: J9-1000
    MediaInfo
    Общее
    Полное имя : D: Allegiant (2016) DVD5VIDEO_TSVTS_01_1.VOB
    Формат : MPEG-PS
    Размер файла : 1024 Мбайт
    Продолжительность : 25 м.
    Режим общего битрейта : Переменный
    Общий поток : 5557 Кбит/сек
    Видео
    Идентификатор : 224 (0xE0)
    Формат : MPEG Video
    Версия формата : Version 2
    Профиль формата : Main@Main
    Параметр BVOP формата : Да
    Параметр матрицы формата : Выборочная
    Параметр GOP формата : Variable
    Продолжительность : 25 м.
    Вид битрейта : Переменный
    Битрейт : 4999 Кбит/сек
    Максимальный битрейт : 9000 Кбит/сек
    Ширина : 720 пикселей
    Высота : 576 пикселей
    Соотношение сторон : 16: 9
    Частота кадров : 25, 000 кадров/сек
    Стандарт вещания : PAL
    Цветовое пространство : YUV
    Субдискретизация насыщенности : 4: 2: 0
    Битовая глубина : 8 бит
    Тип развёртки : Прогрессивная
    Порядок развёртки : Нижнее поле первое
    Метод сжатия : С потерями
    Бит/(Пиксели*Кадры) : 0.482
    Временной код первого кадра : 00: 00: 00: 00
    Оригинал временного кода : Group of pictures t_head
    GOP, открыто/закрыто : Открыто
    GOP, открыто/закрыто на первом кадре : Закрыто
    Размер потока : 921 Мбайт (90%)
    Аудио
    Идентификатор : 189 (0xBD)-128 (0x80)
    Формат : AC-3
    Формат/Информация : Audio Coding 3
    Расширение режима : CM (complete main)
    Параметр Endianness формата : Big
    Режим смешивания : DVD-Video
    Продолжительность : 25 м.
    Вид битрейта : Постоянный
    Битрейт : 448 Кбит/сек
    Каналы : 6 каналов
    Расположение каналов : Front: L C R, Side: L R, LFE
    Частота : 48, 0 КГц
    Частота кадров : 31, 250 кадров/сек (1536 spf)
    Метод сжатия : С потерями
    Размер потока : 82, 5 Мбайт (8%)
    Меню
    Скриншоты


    Залил: carisha

    Онлайн видео Дивергент, глава 3: За стеной


    Размер скачиваемого торрента: 4.37 GB (4692494336 Bytes)

    Дивергент, глава 3: За стеной/Allegiant (2016) DVD5 | D
    загрузка...
    Рейтинг →
     (голосов: 1, оценка 5/5, голосовать можно 1 раз )

    Другие торренты по теме:

  • Дивергент, глава 2: Инсургент / Insurgent (2015) CAMRip
  • Дивергент, глава 2: Инсургент / Insurgent (2015) WEBRip | Звук с TS
  • Дивергент, глава 2: Инсургент / Insurgent (2015) HDTVRip–AVC | Чистый звук
  • Дивергент, глава 2: Инсургент / Insurgent (2015) HDTVRip | Чистый звук
  • Дивергент, глава 2: Инсургент / Insurgent (2015) HDRip от Scarabey | Чистый звук
  • Дивергент, глава 2: Инсургент / Insurgent (2015) BDRip 720p | iTunes
  • Дивергент, глава 2: Инсургент / Insurgent (2015) Blu-ray 1080p от HDCLUB | RUS Transfer | D | лицензия
  • Дивергент, глава 2: Инсургент / Insurgent (2015) BDRip 720p | Лицензия


    • Комментарии (0):

      Информация

      Информация

        Посетители, находящиеся в группе Гости, не могут оставлять комментарии в данной новости.

        ↓ Меню



        ↓ Опрос

        А Вы добавили сайт в закладки?
        Да
        Не


        Top 10 за месяц (Фильмы)