.
Авторизация | Регистрация
Хочешь лучшие торренты? Добавь свой email!
Добавить
» » Падение Лондона / London Has Fallen (2016) BDRip 720p от Scarabey | Лицензия скачать торрент бесплатно




    Падение Лондона / London Has Fallen (2016) BDRip 720p от Scarabey | Лицензия скачать торрент бесплатно

    Опубликовал: Админ | Дата: 23-08-2016, 05:00 | Просмотров: 59



    Снималось в: США, Великобритания, Болгария
    Категория жанра: боевик, триллер, криминал
    Создали в: 2016
    Время просмотра: 01: 38: 24
    Перевод текста: Профессиональный (дублированный) - Лицензия
    Субтитры подготовлены: нет
    Главный режиссер: Бабак Наджафи/Babak Najafi

    Актеры
    Джерард Батлер, Аарон Экхарт, Морган Фриман, Алон Абутбул, Валид Зуэйтер, Адель Беншериф, Мехди Дехби
    Описание: Действие фильма начинается в Лондоне, где премьер-министр Великобритании погибает при загадочных обстоятельствах. На похоронах безусловно присутствуют руководители западного мира. Но то, что начиналось как наиболее безопасное событие на земле, превращается в опаснейшее покушение на самых мощных мировых лидеров, что в свою очередь ставит под угрозу будущее всего мира. Только три человека сохраняют надежду на предотвращение катастрофы: президент США, его верный помощник — агент спецслужбы и английский агент МИ-6, который никому не доверяет...
    Качество фильма видео: BDRip 720p
    Тип видео видео: MKV
    Информация о видео: 1280х536, 23, 976 fps, AVC ~5139 kbps avg
    Информация о звуке: 48 kHz, AC3 Dolby Digital, 3/2 (L, C, R, l, r) + LFE ch, ~384 kbps
    Релиз подготовил:
    АНОНСЫ МОИХ РАЗДАЧ!



    МедиаИнфо

    London.Has.Fallen.2016_720p_BDRip_scarabey.org.mkv
    Формат : Matroska
    Версия формата : Version 4/Version 2
    Размер файла : 4, 07 Гбайт
    Продолжительность : 1 ч. 38 м.
    Общий поток : 5897 Кбит/сек
    Дата кодирования : UTC 2016-08-21 16: 50: 16
    Программа кодирования : mkvmerge v6.1.0 (;Old Devil;) built on Mar 4 2013 09: 10: 42
    Библиотека кодирования : libebml v1.3.0 + libmatroska v1.4.0
    Видео
    Идентификатор : 1
    Формат : AVC
    Формат/Информация : Advanced Video Codec
    Профиль формата : High@L4.1
    Параметр CABAC формата : Да
    Параметр ReFrames формата : 12 кадров
    Идентификатор кодека : V_MPEG4/ISO/AVC
    Продолжительность : 1 ч. 38 м.
    Битрейт : 5139 Кбит/сек
    Ширина : 1280 пикселей
    Высота : 536 пикселей
    Соотношение сторон : 2, 40: 1
    Режим частоты кадров : Постоянный
    Частота кадров : 23, 976 (24000/1001) кадра/сек
    Цветовое пространство : YUV
    Субдискретизация насыщенности : 4: 2: 0
    Битовая глубина : 8 бит
    Тип развёртки : Прогрессивная
    Бит/(Пиксели*Кадры) : 0.312
    Размер потока : 3, 54 Гбайт (87%)
    Библиотека кодирования : x264 core 148 r2638 7599210
    Настройки программы : cabac=1/ref=12/deblock=1: -3: -3/analyse=0x3: 0x133/me=tesa/subme=11/psy=1/psy_rd=1.05: 0.00/mixed_ref=1/me_range=24/chroma_me=1/trellis=2/8x8dct=1/cqm=0/deadzone=21, 11/fast_pskip=0/chroma_qp_offset=-2/threads=12/lookahead_threads=3/sliced_threads=0/nr=0/decimate=1/interlaced=0/bluray_compat=0/constrained_intra=0/bframes=11/b_pyramid=2/b_adapt=2/b_bias=0/direct=3/weightb=1/open_gop=0/weightp=2/keyint=250/keyint_min=23/scenecut=40/intra_refresh=0/rc=crf/mbtree=0/crf=15.5/qcomp=0.70/qpmin=0/qpmax=69/qpstep=4/ip_ratio=1.40/pb_ratio=1.30/aq=1: 0.70
    Язык : English
    Default : Да
    Forced : Нет
    Цветовой диапазон : Limited
    Коэффициенты матрицы : BT.709
    Аудио
    Идентификатор : 2
    Формат : AC-3
    Формат/Информация : Audio Coding 3
    Расширение режима : CM (complete main)
    Параметр Endianness формата : Big
    Идентификатор кодека : A_AC3
    Продолжительность : 1 ч. 38 м.
    Вид битрейта : Постоянный
    Битрейт : 640 Кбит/сек
    Каналы : 6 каналов
    Расположение каналов : Front: L C R, Side: L R, LFE
    Частота : 48, 0 КГц
    Частота кадров : 31, 250 кадров/сек (1536 spf)
    Метод сжатия : С потерями
    Задержка видео : 1 с. 0 мс.
    Размер потока : 452 Мбайт (11%)
    Заголовок : Дубляж - Лицензия
    Язык : Russian
    Default : Да
    Forced : Нет
    Меню
    00: 00: 00.000 : en: 00: 00: 00.000
    00: 05: 23.281 : en: 00: 05: 23.281
    00: 10: 12.987 : en: 00: 10: 12.987
    00: 15: 53.202 : en: 00: 15: 53.202
    00: 20: 13.546 : en: 00: 20: 13.546
    00: 23: 41.462 : en: 00: 23: 41.462
    00: 28: 51.229 : en: 00: 28: 51.229
    00: 33: 30.383 : en: 00: 33: 30.383
    00: 39: 37.208 : en: 00: 39: 37.208
    00: 45: 05.286 : en: 00: 45: 05.286
    00: 49: 43.105 : en: 00: 49: 43.105
    00: 53: 26.954 : en: 00: 53: 26.954
    00: 58: 40.392 : en: 00: 58: 40.392
    01: 02: 42.467 : en: 01: 02: 42.467
    01: 08: 22.598 : en: 01: 08: 22.598
    01: 12: 51.075 : en: 01: 12: 51.075
    01: 17: 35.401 : en: 01: 17: 35.401
    01: 20: 58.270 : en: 01: 20: 58.270
    01: 26: 11.500 : en: 01: 26: 11.500
    01: 31: 42.247 : en: 01: 31: 42.247


    Онлайн видео Падение Лондона


    Размер скачиваемого торрента: 4.07 GB (4364862648 Bytes)

    Падение Лондона/London Has Fallen (2016) BDRip 720p от Scarabey | Лицензия
    загрузка...
    Рейтинг →
     (голосов: 1, оценка 5/5, голосовать можно 1 раз )

    Другие торренты по теме:

  • Падение Лондона (2016)
  • Падение Лондона / London Has Fallen (2016) WEBRip от Twi7ter | Line
  • Падение Лондона / London Has Fallen (2016) WEB-DL 720p | iTunes
  • Падение Лондона / London Has Fallen (2016) WEB-DLRip-AVC от Scarabey | iTunes
  • Падение Лондона / London Has Fallen (2016) WEB-DLRip от KinoHitHD | КПК | iTunes
  • Падение Лондона / London Has Fallen (2016) HDRip от MegaPeer | iTunes
  • Падение Лондона / London Has Fallen (2016) BDRip 1080p | iTunes
  • Падение Лондона / London Has Fallen (2016) BDRip-AVC | iTunes


    • Комментарии (0):

      Информация

      Информация

        Посетители, находящиеся в группе Гости, не могут оставлять комментарии в данной новости.

        ↓ Меню



        ↓ Опрос

        А Вы добавили сайт в закладки?
        Да
        Не


        Top 10 за месяц (Фильмы)