.
Авторизация | Регистрация
Хочешь лучшие торренты? Добавь свой email!
Добавить
» » Случай / Przypadek / Blind Chance (1981) BDRemux 1080p | P2 скачать торрент бесплатно




    Случай / Przypadek / Blind Chance (1981) BDRemux 1080p | P2 скачать торрент бесплатно

    Опубликовал: Админ | Дата: 23-08-2016, 05:00 | Просмотров: 35



    Детально о кино
    Русское название: Случай
    Русское название в мировом прокате: Przypadek/Blind Chance
    Создали в: 1981
    Категория жанра: драма
    Главный режиссер: Кшиштоф Кесьлёвский

    Актеры
    Богуслав Линда, Тадеуш Ломницкий, Збигнев Запасевич, Богуслава Павелец, Мажена Трыбала, Яцек Борковски, Яцек Сас-Ухрыновский, Адам Ференцы, Моника Гоздзик, Зигмунт Хубнер и др.

    Сюжет фильма
    Молодой человек Витек пытается найти себя — то заключает сделку с госбезопасностью, то вливается в студенческое движение, то погружается в религию. Символом его метаний становится поезд, на который он все время опаздывает.
    На эту политическую канву накладывается его любовные искания. Он безрезультатно ищет свою любовь и сам не замечает, как предает любимых женщин.

    Снималось в: Польша
    Время просмотра: 02: 03: 17
    Перевод текста: Перевод текста: Профессиональный (двухголосый закадровый) Кармен Видео
    Субтитры подготовлены: русские 2x Full, Forced, английские
    Оригинальная аудиодорожка: польский
    Файл
    Качество фильма: BDRemux 1080p
    Информация о видео: MPEG-4 AVC/NTSC 16: 9/1920x1080 (1, 72: 1)/34848 kbps/23, 976 fps/0.701 bit/pixel/High@L4.1
    Информация о звуке 1: Russian/Dolby Digital Audio/48 kHz/2.0 Ch/192 kbps/16 bit/DVO
    Информация о звуке 2: Polish/LPCM Audio/48 kHz/2.0 Ch/2304 kbps/24 bit/Original
    Скриншоты

    MediaInfo
    Общее
    Уникальный идентификатор : 176418412045401697151001518386384529545 (0x84B8F34394A3CFD59C23B9EAB7B0E889)
    Полное имя : D: Przypadek aka Blind Chance.1981.CRITERION.BDRemux.1080p.mkv
    Формат : Matroska
    Версия формата : Version 4/Version 2
    Размер файла : 32, 2 Гбайт
    Продолжительность : 2 ч. 3 м.
    Режим общего битрейта : Переменный
    Общий поток : 37, 3 Мбит/сек
    Дата кодирования : UTC 2016-05-06 14: 20: 07
    Программа кодирования : mkvmerge v9.1.0 (;Little Earthquakes;) 64bit
    Библиотека кодирования : libebml v1.3.3 + libmatroska v1.4.4
    Видео
    Идентификатор : 1
    Формат : AVC
    Формат/Информация : Advanced Video Codec
    Профиль формата : High@L4.1
    Параметр CABAC формата : Да
    Параметр ReFrames формата : 4 кадра
    Идентификатор кодека : V_MPEG4/ISO/AVC
    Продолжительность : 2 ч. 3 м.
    Вид битрейта : Переменный
    Битрейт : 34, 8 Мбит/сек
    Максимальный битрейт : 37, 0 Мбит/сек
    Ширина : 1920 пикселей
    Высота : 1080 пикселей
    Соотношение сторон : 16: 9
    Режим частоты кадров : Постоянный
    Частота кадров : 23, 976 (24000/1001) кадра/сек
    Цветовое пространство : YUV
    Субдискретизация насыщенности : 4: 2: 0
    Битовая глубина : 8 бит
    Тип развёртки : Прогрессивная
    Бит/(Пиксели*Кадры) : 0.701
    Размер потока : 30, 0 Гбайт (93%)
    Язык : Polish
    Default : Да
    Forced : Нет
    Аудио #1
    Идентификатор : 2
    Формат : AC-3
    Формат/Информация : Audio Coding 3
    Расширение режима : CM (complete main)
    Параметр Endianness формата : Big
    Идентификатор кодека : A_AC3
    Продолжительность : 2 ч. 3 м.
    Вид битрейта : Постоянный
    Битрейт : 192 Кбит/сек
    Каналы : 2 канала
    Расположение каналов : Front: L R
    Частота : 48, 0 КГц
    Частота кадров : 31, 250 кадров/сек (1536 spf)
    Метод сжатия : С потерями
    Размер потока : 169 Мбайт (1%)
    Заголовок : DVO/Кармен Видео
    Язык : Russian
    Default : Да
    Forced : Нет
    Аудио #2
    Идентификатор : 3
    Формат : PCM
    Идентификатор кодека : A_PCM/INT/LIT
    Продолжительность : 2 ч. 3 м.
    Вид битрейта : Постоянный
    Битрейт : 2304 Кбит/сек
    Каналы : 2 канала
    Частота : 48, 0 КГц
    Частота кадров : 32, 000 кадра/сек (1500 spf)
    Битовая глубина : 24 бит
    Размер потока : 1, 98 Гбайт (6%)
    Заголовок : Original
    Язык : Polish
    Default : Нет
    Forced : Нет
    Текст #1
    Идентификатор : 4
    Формат : UTF-8
    Идентификатор кодека : S_TEXT/UTF8
    Идентификатор кодека/Информация : UTF-8 Plain Text
    Продолжительность : 1 ч. 50 м.
    Битрейт : 3 бит/сек
    Count of elements : 57
    Размер потока : 3, 07 Кбайт (0%)
    Заголовок : FORCED
    Язык : Russian
    Default : Да
    Forced : Нет
    Текст #2
    Идентификатор : 5
    Формат : UTF-8
    Идентификатор кодека : S_TEXT/UTF8
    Идентификатор кодека/Информация : UTF-8 Plain Text
    Продолжительность : 1 ч. 58 м.
    Битрейт : 74 бит/сек
    Count of elements : 1262
    Размер потока : 64, 6 Кбайт (0%)
    Заголовок : FULL/№1
    Язык : Russian
    Default : Нет
    Forced : Нет
    Текст #3
    Идентификатор : 6
    Формат : UTF-8
    Идентификатор кодека : S_TEXT/UTF8
    Идентификатор кодека/Информация : UTF-8 Plain Text
    Продолжительность : 2 ч. 1 м.
    Битрейт : 75 бит/сек
    Count of elements : 1350
    Размер потока : 67, 2 Кбайт (0%)
    Заголовок : FULL/№2
    Язык : Russian
    Default : Нет
    Forced : Нет
    Текст #4
    Идентификатор : 7
    Формат : UTF-8
    Идентификатор кодека : S_TEXT/UTF8
    Идентификатор кодека/Информация : UTF-8 Plain Text
    Продолжительность : 2 ч. 2 м.
    Битрейт : 39 бит/сек
    Count of elements : 1271
    Размер потока : 35, 6 Кбайт (0%)
    Заголовок : ENG
    Язык : English
    Default : Нет
    Forced : Нет
    Меню
    00: 00: 00.000 : en: Witek
    00: 07: 32.493 : en: Scenario 1
    00: 11: 07.124 : en: Werner
    00: 16: 48.215 : en: Us Deviationists
    00: 20: 44.409 : en: If You Need Anything
    00: 23: 43.922 : en: Czuszka
    00: 27: 51.002 : en: Hospital Situation
    00: 33: 55.992 : en: Just a Test Run
    00: 37: 28.246 : en: Help From Adam
    00: 41: 49.173 : en: Underground Press
    00: 49: 30.592 : en: Disillusionment
    00: 55: 30.368 : en: Flight
    01: 00: 09.397 : en: Scenario 2
    01: 03: 11.078 : en: Marek
    01: 06: 05.378 : en: First Assignment
    01: 12: 36.477 : en: Daniel and Werka
    01: 19: 50.202 : en: Belief
    01: 25: 23.284 : en: A Day Like This
    01: 33: 31.647 : en: Where Were You?
    01: 36: 36.791 : en: Strikes
    01: 38: 53.594 : en: Scenario 3
    01: 41: 51.647 : en: Vocation and Family
    01: 47: 35.115 : en: Sides
    01: 51: 09.245 : en: The Dean;s Request
    01: 55: 38.473 : en: Olga;s Birthday
    01: 57: 43.556 : en: Flight 277 to Paris


    Онлайн видео Случай


    Размер скачиваемого торрента: 32.16 GB (34535732516 Bytes)

    Случай/Przypadek/Blind Chance (1981) BDRemux 1080p | P2
    загрузка...
    Рейтинг →
     (голосов: 1, оценка 4/5, голосовать можно 1 раз )

    Другие торренты по теме:

  • Инцидент, или Случай в метро / The Incident (1967) SATRip
  • Особый случай (2013) HDTVRip от Getty
  • Особый случай (2013) HDTV 1080i
  • Особый случай (2013) HDTVRip 720p
  • Особый случай (2013) DVB
  • Несчастный случай / Accident (1967) BDRip (AVC) от MediaClub | P2, A
  • Особый случай. Комсомольская правда ТВ (2013) SATRip
  • Любовь как несчастный случай / Тайга (2012) HDTVRip


    • Комментарии (0):

      Информация

      Информация

        Посетители, находящиеся в группе Гости, не могут оставлять комментарии в данной новости.

        ↓ Меню



        ↓ Опрос

        А Вы добавили сайт в закладки?
        Да
        Не


        Top 10 за месяц (Фильмы)