.
Авторизация | Регистрация
Хочешь лучшие торренты? Добавь свой email!
Добавить
» » Славные парни / The Nice Guys (2016) HDRip | Кубик в Кубе скачать торрент бесплатно




    Славные парни / The Nice Guys (2016) HDRip | Кубик в Кубе скачать торрент бесплатно

    Опубликовал: Админ | Дата: 23-08-2016, 05:00 | Просмотров: 279



    Создали в: США, Великобритания, Bloom, Nice Guys, Waypoint Entertainment
    Категория жанра: Криминал, Комедия
    Главный режиссер: Шейн Блэк
    Продюсер: Джоэл Силвер, Аарон Ауч, Энтони Багароцци
    Актеры: Райан Гослинг, Ким Бейсингер, Рассел Кроу, Энгаури Райс, Мэтт Бомер, Маргарет Куэлли, Йайа ДаКоста, Кит Дэвид, Бо Напп, Лоис Смит

    Описание фильма

    Что бывает, когда напарником брутального костолома становится субтильный лопух? Наемный охранник Джексон Хили и частный детектив Холланд Марч вынуждены работать в паре, чтобы распутать плевое дело о пропавшей девушке, которое оборачивается преступлением века. Смогут ли парни разгадать сложный ребус, если у каждого из них - свои, весьма индивидуальные, методы...

    Время просмотра: 01: 55: 57
    Перевод текста: Профессиональный двухголосый -Кубик в Кубе (без цензуры)
    Субтитры: Отсутствуют
    Качество фильма видео: HDRip
    Информация о видео: 720x304 (2.37: 1), 23.976 fps, XviD build 73 ~1345 kbps, 0.26 bit/pixel
    Информация о звуке: AC-3, 48.0 KHz, 6 ch, 448 Kbps
    Mediainfo:
    Формат : AVI
    Формат/Информация : Audio Video Interleave
    Размер файла : 1, 46 Гбайт
    Продолжительность : 1 ч. 55 м.
    Общий поток : 1803 Кбит/сек
    Программа кодирования : VirtualDubMod 1.5.10.3 | www.virtualdub-fr.org || (build 2550/release)
    Библиотека кодирования : VirtualDubMod build 2550/release
    Видео
    Идентификатор : 0
    Формат : MPEG-4 Visual
    Профиль формата : Advanced Simple@L5
    Параметр BVOP формата : 1
    Параметр QPel формата : Нет
    Параметр GMC формата : Без точки перехода
    Параметр матрицы формата : Выборочная
    Идентификатор кодека : XVID
    Идентификатор кодека/Подсказка : XviD
    Продолжительность : 1 ч. 55 м.
    Битрейт : 1345 Кбит/сек
    Ширина : 720 пикселей
    Высота : 304 пикселя
    Соотношение сторон : 2, 35: 1
    Частота кадров : 23, 976 кадра/сек
    Цветовое пространство : YUV
    Субдискретизация насыщенности : 4: 2: 0
    Битовая глубина : 8 бит
    Тип развёртки : Прогрессивная
    Метод сжатия : С потерями
    Бит/(Пиксели*Кадры) : 0.256
    Размер потока : 1, 09 Гбайт (75%)
    Библиотека кодирования : XviD 73
    Аудио
    Идентификатор : 1
    Формат : AC-3
    Формат/Информация : Audio Coding 3
    Расширение режима : CM (complete main)
    Параметр Endianness формата : Big
    Идентификатор кодека : 2000
    Продолжительность : 1 ч. 55 м.
    Вид битрейта : Постоянный
    Битрейт : 448 Кбит/сек
    Каналы : 6 каналов
    Расположение каналов : Front: L C R, Side: L R, LFE
    Частота : 48, 0 КГц
    Битовая глубина : 16 бит
    Метод сжатия : С потерями
    Размер потока : 372 Мбайт (25%)
    Выравнивание : Разделение по промежуткам
    Продолжительность промежутка : 42 мс. (1, 00 видеокадр)
    Время предзагрузки промежутка : 500 мс.

    Скриншоты:


    Онлайн видео Славные парни


    Размер скачиваемого торрента: 1.46 GB (1567807488 Bytes)

    Славные парни/The Nice Guys (2016) HDRip | Кубик в Кубе
    загрузка...
    Рейтинг →
     (голосов: 1, оценка 4/5, голосовать можно 1 раз )

    Другие торренты по теме:

  • Славные парни / Goodfellas (1990) BDRip-AVC | iPad
  • Славные парни / Goodfellas (1990) BDRip 1080p
  • Славные парни / Goodfellas (1990) BDRip-AVC от ExKinoRay скачать через торрент бесплатно
  • Славные парни / Goodfellas (1990) BDRip 720p | D
  • Славные парни / Goodfellas (1990) BDRip 1080p | 25th Anniversary Edition
  • Славные парни / Goodfellas (1990) BDRip от MediaClub | КПК
  • Славные парни / Goodfellas (1990) BDRip 1080p от NNNB | D,P2 | Remastered from a 4k
  • Славные парни (2016)


    • Комментарии (0):

      Информация

      Информация

        Посетители, находящиеся в группе Гости, не могут оставлять комментарии в данной новости.

        ↓ Меню



        ↓ Опрос

        А Вы добавили сайт в закладки?
        Да
        Не


        Top 10 за месяц (Фильмы)