.
Авторизация | Регистрация
Хочешь лучшие торренты? Добавь свой email!
Добавить




Враги (1953) DVDRip от New-Team скачать торрент бесплатно

Опубликовал: Админ | Дата: 22-08-2016, 05:01 | Просмотров: 102



Снималось в: СССР
Создали в: Ленфильм
Категория жанра: драма
Создали в: 1953
Время просмотра: 02: 28: 25
Перевод текста: Не требуется
Субтитры подготовлены: нет
Оригинальная аудиодорожка: русский
Главный режиссер: Тамара Родионова

Актеры

Василий Софронов, Елена Грановская, Николай Корн, Валентина Кибардина, Нина Ольхина, Иван Ефремов, Степан Пономаренко, Анна Никритина, Александр Соколов, Виталий Иллич, Виктор Чайников, Николай Дмитриев, Владислав Стржельчик, Александр Лариков, Борис Рыжухин, Евгений Горюнов, Евгений Иванов, Александра Фомина, Николай Семилетов, Павел Колобов, Иван Пальму, А. Москвин, Александр Чепурнов...
Полный список актёров
Описание:
Фильм-спектакль по одноименной пьесе М.Горького в постановке Ленинградского БДТ, режиссер спектакля - Наталья Рашевская.
Действие происходит накануне революции 1905 года. На фабрике Бардина стало особенно неспокойно. Директор фабрики, компаньон хозяина Скроботов, отвергает справедливые требования рабочих уволить жестокого мастера. В ответ на возмущение рабочих хозяева закрывают фабрику и вызывают солдат. Скроботов угрожает рабочим револьвером, и его убивают...



Источник: DVD9 R5
Качество фильма видео: DVDRip
Тип видео видео: AVI
Информация о видео: 688x512 (4: 3), 25 fps, XviD ~ 1901 kbps avg, 0.216 bit/pixel
Информация о звуке: 48 kHz, Dolby Digital AC3 2.0, 192 kbps
Раздача от:
MediaInfo

Общее
Полное имя : Vragi.1953.DVDRip_New-team_by_AVP_Studio.avi
Формат : AVI
Формат/Информация : Audio Video Interleave
Профиль формата : OpenDML
Размер файла : 2, 18 Гбайт
Продолжительность : 2 ч. 28 м.
Общий поток : 2105 Кбит/сек
Программа кодирования : VirtualDubMod 1.5.10.3 | www.virtualdub-fr.org || (build 2550/release)
Библиотека кодирования : VirtualDubMod build 2550/release
Видео
Идентификатор : 0
Формат : MPEG-4 Visual
Профиль формата : Advanced Simple@L5
Параметр BVOP формата : 1
Параметр QPel формата : Нет
Параметр GMC формата : Без точки перехода
Параметр матрицы формата : Выборочная
Идентификатор кодека : XVID
Идентификатор кодека/Подсказка : XviD
Продолжительность : 2 ч. 28 м.
Битрейт : 1901 Кбит/сек
Ширина : 688 пикселей
Высота : 512 пикселей
Соотношение сторон : 4: 3
Частота кадров : 25, 000 кадров/сек
Цветовое пространство : YUV
Субдискретизация насыщенности : 4: 2: 0
Битовая глубина : 8 бит
Тип развёртки : Прогрессивная
Метод сжатия : С потерями
Бит/(Пиксели*Кадры) : 0.216
Размер потока : 1, 97 Гбайт (90%)
Библиотека кодирования : XviD 1.2.1 (UTC 2008-12-04)
Аудио
Идентификатор : 1
Формат : AC-3
Формат/Информация : Audio Coding 3
Расширение режима : CM (complete main)
Параметр Endianness формата : Big
Идентификатор кодека : 2000
Продолжительность : 2 ч. 28 м.
Вид битрейта : Постоянный
Битрейт : 192 Кбит/сек
Каналы : 2 канала
Расположение каналов : Front: L R
Частота : 48, 0 КГц
Частота кадров : 31, 250 кадров/сек (1536 spf)
Метод сжатия : С потерями
Размер потока : 204 Мбайт (9%)
Выравнивание : Разделение по промежуткам
Продолжительность промежутка : 40 мс. (1, 00 видеокадр)
Время предзагрузки промежутка : 500 мс

Скриншоты



Залил: AVPStudio

Онлайн видео Враги (1953) DVDRip от New


Размер скачиваемого торрента: 2.18 GB (2343301120 Bytes)

Враги (1953) DVDRip от New-Team
загрузка...
Рейтинг →
 (голосов: 1, оценка 5/5, голосовать можно 1 раз )

Другие торренты по теме:

  • Близкие враги / Enemies Closer (2013) DVDRip-AVC | L1
  • Близкие враги / Enemies Closer (2013) DVDRip | L1
  • Враг номер один / Враги Общества # 1 / Public Enemy No. 1 (1996) DVDRip от Leon-masl | P, A скачать через торрент бесплатно
  • Враги (1953) DVDRip от New-Team
  • Враги (1953) DVDRip от New-Team


    • Комментарии (0):

      Информация

      Информация

        Посетители, находящиеся в группе Гости, не могут оставлять комментарии в данной новости.

        ↓ Меню



        ↓ Опрос

        А Вы добавили сайт в закладки?
        Да
        Не


        Top 10 за месяц (Фильмы)