.
Авторизация | Регистрация
Хочешь лучшие торренты? Добавь свой email!
Добавить
» » Легенда Багера Ванса / The Legend of Bagger Vance (2000) WEBRip-AVC | Р скачать торрент бесплатно




    Легенда Багера Ванса / The Legend of Bagger Vance (2000) WEBRip-AVC | Р скачать торрент бесплатно

    Опубликовал: Админ | Дата: 22-08-2016, 05:00 | Просмотров: 28



    Создали в: США, кинокомпании: Allied Filmmakers, Wildwood Enterprises
    Категория жанра: Мелодрама, Фэнтези, Драма
    Главный режиссер: Роберт Редфорд
    Актеры: Уилл Смит, Мэтт Дэймон, Шарлиз Терон, Брюс МакГилл, Джоэль Гретш, Лэйн Смит, Питер Герети, Майкл О`Нейлл, Томас Джей Райан, Трип Хэмилтон, Дермот Краули, Харви Преснелл, Дэнни Нельсон, Боб Пенни, Майкл МакКарти

    Описание фильма

    Уилл Смит (Люди в черном), Шарлиз Терон (Адвокат Дьявола), Мэтт Дэймон (Талантливый мистер Рипли) в потрясающей по красоте мелодраме обладателя премии Оскар Роберта Редфорда (Афера) - Легенда Багера Ванса. Америка. 20-е годы... Ветеран войны Раннулф Джуннах когда-то был лучшим игроком в гольф во всей Саванне. Но сейчас он всего лишь разочарованный в жизни пьяница. Внезапно в его жизни появляется таинственный Багер Ванс. Он открывает Раннулфу секреты истинного мастерства игры. Теперь Джуннах готов к большому соревнованию.

    Перевод текста: Профессиональный (многоголосый, закадровый)
    Субтитры: нет
    Время просмотра: 02: 06: 24
    Качество фильма: WEBRip-AVC
    Информация о видео: AVC, 1024x576 (16: 9), 23.976 fps, 2 026 Kbps (0.143 bit/pixel)
    Информация о звуке: AC-3, 48.0 KHz, 6 ch, 448 Kbps
    Mediainfo:

    Формат : Matroska
    Версия формата : Version 2
    Размер файла : 2, 19 Гбайт
    Продолжительность : 2 ч. 6 м.
    Общий поток : 2476 Кбит/сек
    Дата кодирования : UTC 2016-08-18 20: 32: 19
    Программа кодирования : mkvmerge v5.3.0 (;I could have danced;) built on Feb 9 2012 10: 38: 07
    Библиотека кодирования : libebml v1.2.3 + libmatroska v1.3.0
    Attachment : Yes
    Видео
    Идентификатор : 1
    Формат : AVC
    Формат/Информация : Advanced Video Codec
    Профиль формата : High@L4.1
    Параметр CABAC формата : Да
    Параметр ReFrames формата : 11 кадров
    Идентификатор кодека : V_MPEG4/ISO/AVC
    Продолжительность : 2 ч. 6 м.
    Битрейт : 2026 Кбит/сек
    Ширина : 1024 пикселя
    Высота : 576 пикселей
    Соотношение сторон : 16: 9
    Режим частоты кадров : Постоянный
    Частота кадров : 23, 976 кадра/сек
    Цветовое пространство : YUV
    Субдискретизация насыщенности : 4: 2: 0
    Битовая глубина : 8 бит
    Тип развёртки : Прогрессивная
    Бит/(Пиксели*Кадры) : 0.143
    Размер потока : 1, 75 Гбайт (80%)
    Библиотека кодирования : x264 core 146 r2538 121396c
    Настройки программы : cabac=1/ref=11/deblock=1: -3: -3/analyse=0x3: 0x133/me=umh/subme=10/psy=1/psy_rd=1.00: 0.15/mixed_ref=1/me_range=32/chroma_me=1/trellis=2/8x8dct=1/cqm=0/deadzone=21, 11/fast_pskip=0/chroma_qp_offset=-3/threads=12/lookahead_threads=2/sliced_threads=0/nr=0/decimate=0/interlaced=0/bluray_compat=0/constrained_intra=0/bframes=8/b_pyramid=2/b_adapt=2/b_bias=0/direct=3/weightb=1/open_gop=0/weightp=2/keyint=240/keyint_min=23/scenecut=40/intra_refresh=0/rc_lookahead=40/rc=2pass/mbtree=0/bitrate=2026/ratetol=1.0/qcomp=0.60/qpmin=0/qpmax=69/qpstep=4/cplxblur=20.0/qblur=0.5/vbv_maxrate=50000/vbv_bufsize=62500/nal_hrd=none/filler=0/ip_ratio=1.40/pb_ratio=1.30/aq=2: 0.80
    Default : Да
    Forced : Нет
    Аудио
    Идентификатор : 2
    Формат : AC-3
    Формат/Информация : Audio Coding 3
    Расширение режима : CM (complete main)
    Параметр Endianness формата : Big
    Идентификатор кодека : A_AC3
    Продолжительность : 2 ч. 6 м.
    Вид битрейта : Постоянный
    Битрейт : 448 Кбит/сек
    Каналы : 6 каналов
    Расположение каналов : Front: L C R, Side: L R, LFE
    Частота : 48, 0 КГц
    Битовая глубина : 16 бит
    Метод сжатия : С потерями
    Размер потока : 405 Мбайт (18%)
    Default : Да
    Forced : Нет

    Скриншоты:


    Онлайн видео Легенда Багера Ванса


    Размер скачиваемого торрента: 2.19 GB (2347342488 Bytes)

    Легенда Багера Ванса/The Legend of Bagger Vance (2000) WEBRip-AVC | Р
    загрузка...
    Рейтинг →
     (голосов: 1, оценка 5/5, голосовать можно 1 раз )

    Другие торренты по теме:

  • Легенда Багера Ванса / The Legend of Bagger Vance (2000) DVDRip от Scarabey | P
  • Легенда Багера Ванса / The Legend of Bagger Vance (2000) DVDRip от Scarabey | P
  • Легенда Багера Ванса / The Legend of Bagger Vance (2000) DVDRip от Scarabey | P


    • Комментарии (0):

      Информация

      Информация

        Посетители, находящиеся в группе Гости, не могут оставлять комментарии в данной новости.

        ↓ Меню



        ↓ Опрос

        А Вы добавили сайт в закладки?
        Да
        Не


        Top 10 за месяц (Фильмы)