.
Авторизация | Регистрация
Хочешь лучшие торренты? Добавь свой email!
Добавить
» » Большой Босс / The Boss (2016) BDRip 720p от ExKinoRay | Лицензия скачать торрент бесплатно




    Большой Босс / The Boss (2016) BDRip 720p от ExKinoRay | Лицензия скачать торрент бесплатно

    Опубликовал: Админ | Дата: 20-08-2016, 05:00 | Просмотров: 41



    Детально о кино
    Русское название: Большой Босс
    Русское название в мировом прокате: The Boss
    Создали в: 2016
    Категория жанра: Комедия
    Главный режиссер: Бен Фэлкоун

    Актеры
    Мелисса МакКарти, Кристен Белл, Питер Динклэйдж, Элла Андерсон, Тайлер Лабин, Кэти Бэйтс, Сесили Стронг, Мэри Сон, Кристен Шаал
    О фильме:
    В центре сюжета бизнес-леди, промышленный магнат, очутившаяся в тюрьме, погорев на теневых сделках. Отсидев положенное, женщина мечтает искупить вину и сменить статус мошенницы на всеобщую любимицу, только не все жертвы ее махинаций готовы пересмотреть свое отношение к ней.

    Снималось в: США
    Киностудия: Gary Sanchez Productions
    Время просмотра: 01: 38: 49
    Перевод текста: Дублированный | Лицензия Blu-Ray CEE
    Файл
    Кодек для видео: MPEG-4
    Качество фильма: BDRip 720p
    Информация о видео: 1280x690, 8833 Kbit/s, 23.976 fps
    Информация о звуке:
    Информация о звуке #01: 48 kHz, DTS, 5.1, 768 Kbps | Дублированный | Лицензия |
    Информация о звуке #02: 48 kHz, AC3, 5.1, 448 Kbps | Дублированный | Лицензия |
    Информация о звуке #03: 48 kHz, DTS, 5.1, 1510 kbps | Оригинал |
    Субтитры: Русские (forced, full), английские

    MI
    General
    Unique ID : 175843080718191034220423828543104634155 (0x844A253D50B4BFD18BCD43ABB79C4D2B)
    Complete name : G: VideoНовая папкаThe.Boss.2016.BDRip.720p.ExKinoRay.mkv
    Format : Matroska
    Format version : Version 4/Version 2
    File size : 7.98 GiB
    Duration : 1 h 43 min
    Overall bit rate : 11.1 Mb/s
    Movie name : The.Boss.2016.BDRip.720p.ExKinoRay
    Encoded date : UTC 2016-08-19 21: 45: 55
    Writing application : mkvmerge v8.3.0 (;Over the Horizon;) 64bit
    Writing library : libebml v1.3.1 + libmatroska v1.4.2
    Video
    ID : 1
    Format : AVC
    Format/Info : Advanced Video Codec
    Format profile : High@L4.1
    Format settings, CABAC : Yes
    Format settings, ReFrames : 9 frames
    Codec ID : V_MPEG4/ISO/AVC
    Duration : 1 h 38 min
    Bit rate : 8 833 kb/s
    Width : 1 280 pixels
    Height : 690 pixels
    Display aspect ratio : 1.85: 1
    Frame rate mode : Constant
    Frame rate : 23.976 (24000/1001) FPS
    Color space : YUV
    Chroma subsampling : 4: 2: 0
    Bit depth : 8 bits
    Scan type : Progressive
    Bits/(Pixel*Frame) : 0.417
    Stream size : 6.09 GiB (76%)
    Writing library : x264 core 146 r2538 121396c
    Encoding settings : cabac=1/ref=9/deblock=1: -3: -3/analyse=0x3: 0x133/me=umh/subme=10/psy=1/psy_rd=1.10: 0.00/mixed_ref=1/me_range=32/chroma_me=1/trellis=2/8x8dct=1/cqm=0/deadzone=21, 11/fast_pskip=0/chroma_qp_offset=-2/threads=6/lookahead_threads=2/sliced_threads=0/nr=0/decimate=0/interlaced=0/bluray_compat=0/constrained_intra=0/bframes=8/b_pyramid=2/b_adapt=2/b_bias=0/direct=3/weightb=1/open_gop=0/weightp=2/keyint=240/keyint_min=23/scenecut=40/intra_refresh=0/rc_lookahead=150/rc=2pass/mbtree=1/bitrate=8833/ratetol=1.0/qcomp=0.70/qpmin=0/qpmax=69/qpstep=4/cplxblur=20.0/qblur=0.5/vbv_maxrate=50000/vbv_bufsize=62500/nal_hrd=none/filler=0/ip_ratio=1.40/aq=3: 0.80
    Language : English
    Default : Yes
    Forced : No
    Audio #1
    ID : 2
    Format : DTS
    Format/Info : Digital Theater Systems
    Mode : 16
    Format settings, Endianness : Big
    Codec ID : A_DTS
    Duration : 1 h 38 min
    Bit rate mode : Constant
    Bit rate : 768 kb/s
    Channel(s) : 6 channels
    Channel positions : Front: L C R, Side: L R, LFE
    Sampling rate : 48.0 kHz
    Frame rate : 93.750 FPS (512 spf)
    Bit depth : 24 bits
    Compression mode : Lossy
    Stream size : 543 MiB (7%)
    Title : DUB Blu-Ray CEE
    Language : Russian
    Default : Yes
    Forced : No
    Audio #2
    ID : 3
    Format : AC-3
    Format/Info : Audio Coding 3
    Mode extension : CM (complete main)
    Format settings, Endianness : Big
    Codec ID : A_AC3
    Duration : 1 h 38 min
    Bit rate mode : Constant
    Bit rate : 448 kb/s
    Channel(s) : 6 channels
    Channel positions : Front: L C R, Side: L R, LFE
    Sampling rate : 48.0 kHz
    Frame rate : 31.250 FPS (1536 spf)
    Compression mode : Lossy
    Stream size : 317 MiB (4%)
    Title : DUB-AC3 Blu-Ray CEE
    Language : Russian
    Default : No
    Forced : No
    Audio #3
    ID : 4
    Format : DTS
    Format/Info : Digital Theater Systems
    Mode : 16
    Format settings, Endianness : Big
    Codec ID : A_DTS
    Duration : 1 h 38 min
    Bit rate mode : Constant
    Bit rate : 1 509 kb/s
    Channel(s) : 6 channels
    Channel positions : Front: L C R, Side: L R, LFE
    Sampling rate : 48.0 kHz
    Frame rate : 93.750 FPS (512 spf)
    Bit depth : 24 bits
    Compression mode : Lossy
    Stream size : 1.04 GiB (13%)
    Title : Original
    Language : English
    Default : No
    Forced : No
    Text #1
    ID : 5
    Format : UTF-8
    Codec ID : S_TEXT/UTF8
    Codec ID/Info : UTF-8 Plain Text
    Duration : 1 h 18 min
    Bit rate : 1 b/s
    Count of elements : 17
    Stream size : 776 Bytes (0%)
    Title : Forced
    Language : Russian
    Default : Yes
    Forced : No
    Text #2
    ID : 6
    Format : UTF-8
    Codec ID : S_TEXT/UTF8
    Codec ID/Info : UTF-8 Plain Text
    Duration : 1 h 36 min
    Bit rate : 143 b/s
    Count of elements : 1970
    Stream size : 101 KiB (0%)
    Title : Full
    Language : Russian
    Default : No
    Forced : No
    Text #3
    ID : 7
    Format : UTF-8
    Codec ID : S_TEXT/UTF8
    Codec ID/Info : UTF-8 Plain Text
    Duration : 1 h 42 min
    Bit rate : 102 b/s
    Count of elements : 2326
    Stream size : 76.7 KiB (0%)
    Title : SDH
    Language : English
    Default : No
    Forced : No
    Menu
    00: 00: 00.000 : en:
    00: 05: 59.984 : en:
    00: 09: 41.455 : en:
    00: 14: 48.345 : en:
    00: 20: 44.159 : en:
    00: 24: 03.817 : en:
    00: 29: 59.839 : en:
    00: 35: 27.542 : en:
    00: 39: 59.105 : en:
    00: 44: 55.484 : en:
    00: 50: 30.026 : en:
    00: 53: 32.208 : en:
    00: 59: 51.296 : en:
    01: 05: 55.076 : en:
    01: 10: 32.061 : en:
    01: 13: 54.680 : en:
    01: 19: 30.223 : en:
    01: 25: 08.019 : en:
    01: 32: 06.229 : en:
    01: 33: 26.434 : en:
    Скриншоты

    Релиз подготовил: Автор релиза:

    Онлайн видео Большой Босс


    Размер скачиваемого торрента: 7.98 GB (8566381711 Bytes)

    Большой Босс/The Boss (2016) BDRip 720p от ExKinoRay | Лицензия
    загрузка...
    Рейтинг →
     (голосов: 1, оценка 5/5, голосовать можно 1 раз )

    Другие торренты по теме:

  • Большой босс / Tang shan da xiong / The Big Boss (1971) BDRip 720p от MediaClub
  • Большой босс / The Big Boss / Tang shan da xiong (1971) BDRip 1080p
  • Большой босс / Tang shan da xiong (1971) BDRip | SATKUR скачать через торрент бесплатно
  • Большой Босс / The Boss (2016)
  • Большой Босс / The Boss (2016) WEB-DLRip | iTunes
  • Большой Босс / The Boss (2016) HDRip от MegaPeer | iTunes
  • Большой Босс / The Boss (2016) BDRip 720p | D | iTunes
  • Большой Босс / The Boss (2016) BDRip-AVC от ExKinoRay | iTunes


    • Комментарии (0):

      Информация

      Информация

        Посетители, находящиеся в группе Гости, не могут оставлять комментарии в данной новости.

        ↓ Меню



        ↓ Опрос

        А Вы добавили сайт в закладки?
        Да
        Не


        Top 10 за месяц (Фильмы)