.
Авторизация | Регистрация
Хочешь лучшие торренты? Добавь свой email!
Добавить
» » Репортерша / Whiskey Tango Foxtrot (2016) BDRemux 1080p от ExKinoRay | Лицензия скачать торрент бесплатно




    Репортерша / Whiskey Tango Foxtrot (2016) BDRemux 1080p от ExKinoRay | Лицензия скачать торрент бесплатно

    Опубликовал: Админ | Дата: 20-08-2016, 05:00 | Просмотров: 30



    Детально о кино
    Русское название: Репортерша
    Русское название в мировом прокате: Whiskey Tango Foxtrot
    Создали в: 2016
    Категория жанра: Драма, комедия, военный, биография
    Главный режиссер: Гленн Фикарра, Джон Рекуа

    Актеры
    Тина Фей, Марго Робби, Мартин Фриман, Альфред Молина, Кристофер Эбботт, Билли Боб Торнтон, Николас Браун, Стивен Пикок, Шейла Ванд, Эван Йоникит

    Сюжет фильма

    Фильм расскажет о деятельности журналистки в качестве репортёра в Афганистане и Пакистане, после прибытия туда в 2002 году.

    Снималось в: США
    Киностудия: Broadway Video Little Stranger, Paramount Pictures
    Время просмотра: 01: 51: 48
    Перевод текста: Дублированный | Лицензия Blu-Ray CEE
    Файл
    Кодек для видео: x264
    Качество фильма: BDRemux 1080p
    Информация о видео: 1920x1080, 28.9 Mbit/s, 23.976 fps
    Информация о звуке:
    Информация о звуке #01: 48 kHz, AC3, 5.1, 640 Kbps | Дублированный | Лицензия |
    Информация о звуке #02: 48 kHz, DTS-HD MA, 7.1, 5722 kbps | Оригинал |
    Субтитры: Русские (forced, full), английские (srt, SDH)

    MI
    General
    Unique ID : 177070485099758246661635830412587304368 (0x853688F29E97C943A97AA127089C05B0)
    Complete name : G: VideoНовая папка (2)Whiskey.Tango.Foxtrot.2016..D.BDREMUX.1080p.ExKinoRay.mkv
    Format : Matroska
    Format version : Version 4/Version 2
    File size : 27.5 GiB
    Duration : 1 h 51 min
    Overall bit rate mode : Variable
    Overall bit rate : 35.2 Mb/s
    Movie name : Whiskey.Tango.Foxtrot.2016..D.BDREMUX.1080p.ExKinoRay
    Encoded date : UTC 2016-08-19 18: 38: 12
    Writing application : mkvmerge v8.3.0 (;Over the Horizon;) 64bit
    Writing library : libebml v1.3.1 + libmatroska v1.4.2
    Video
    ID : 1
    Format : AVC
    Format/Info : Advanced Video Codec
    Format profile : High@L4.1
    Format settings, CABAC : Yes
    Format settings, ReFrames : 4 frames
    Codec ID : V_MPEG4/ISO/AVC
    Duration : 1 h 51 min
    Bit rate mode : Variable
    Bit rate : 28.9 Mb/s
    Maximum bit rate : 31.0 Mb/s
    Width : 1 920 pixels
    Height : 1 080 pixels
    Display aspect ratio : 16: 9
    Frame rate mode : Constant
    Frame rate : 23.976 (24000/1001) FPS
    Color space : YUV
    Chroma subsampling : 4: 2: 0
    Bit depth : 8 bits
    Scan type : Progressive
    Bits/(Pixel*Frame) : 0.581
    Stream size : 22.5 GiB (82%)
    Language : English
    Default : Yes
    Forced : No
    Audio #1
    ID : 2
    Format : AC-3
    Format/Info : Audio Coding 3
    Mode extension : CM (complete main)
    Format settings, Endianness : Big
    Codec ID : A_AC3
    Duration : 1 h 51 min
    Bit rate mode : Constant
    Bit rate : 640 kb/s
    Channel(s) : 6 channels
    Channel positions : Front: L C R, Side: L R, LFE
    Sampling rate : 48.0 kHz
    Frame rate : 31.250 FPS (1536 spf)
    Compression mode : Lossy
    Stream size : 512 MiB (2%)
    Title : DUB Blu-Ray CEE
    Language : Russian
    Default : Yes
    Forced : No
    Audio #2
    ID : 3
    Format : DTS
    Format/Info : Digital Theater Systems
    Format profile : MA/Core
    Mode : 16
    Format settings, Endianness : Big
    Codec ID : A_DTS
    Duration : 1 h 51 min
    Bit rate mode : Variable/Constant
    Bit rate : 5 722 kb/s/1 509 kb/s
    Channel(s) : 8 channels/6 channels
    Channel positions : Front: L C R, Side: L R, Back: L R, LFE/Front: L C R, Side: L R, LFE
    Sampling rate : 48.0 kHz
    Frame rate : 93.750 FPS (512 spf)
    Bit depth : 24 bits
    Compression mode : Lossless/Lossy
    Stream size : 4.47 GiB (16%)
    Title : Original
    Language : English
    Default : No
    Forced : No
    Text #1
    ID : 4
    Format : UTF-8
    Codec ID : S_TEXT/UTF8
    Codec ID/Info : UTF-8 Plain Text
    Duration : 1 h 45 min
    Bit rate : 1 b/s
    Count of elements : 33
    Stream size : 1.29 KiB (0%)
    Title : Forced
    Language : Russian
    Default : Yes
    Forced : No
    Text #2
    ID : 5
    Format : UTF-8
    Codec ID : S_TEXT/UTF8
    Codec ID/Info : UTF-8 Plain Text
    Duration : 1 h 45 min
    Bit rate : 104 b/s
    Count of elements : 1595
    Stream size : 81.2 KiB (0%)
    Title : Full
    Language : Russian
    Default : No
    Forced : No
    Text #3
    ID : 6
    Format : UTF-8
    Codec ID : S_TEXT/UTF8
    Codec ID/Info : UTF-8 Plain Text
    Duration : 1 h 43 min
    Bit rate : 67 b/s
    Count of elements : 1492
    Stream size : 51.1 KiB (0%)
    Title : Full
    Language : English
    Default : No
    Forced : No
    Text #4
    ID : 7
    Format : UTF-8
    Codec ID : S_TEXT/UTF8
    Codec ID/Info : UTF-8 Plain Text
    Duration : 1 h 44 min
    Bit rate : 75 b/s
    Count of elements : 1859
    Stream size : 57.8 KiB (0%)
    Title : SDH
    Language : English
    Default : No
    Forced : No
    Menu
    00: 00: 00.000 : en: Chapter 01
    00: 07: 46.466 : en: Chapter 02
    00: 13: 47.910 : en: Chapter 03
    00: 23: 38.834 : en: Chapter 04
    00: 30: 28.660 : en: Chapter 05
    00: 37: 27.036 : en: Chapter 06
    00: 45: 36.775 : en: Chapter 07
    00: 55: 40.587 : en: Chapter 08
    01: 05: 02.106 : en: Chapter 09
    01: 12: 14.455 : en: Chapter 10
    01: 17: 50.332 : en: Chapter 11
    01: 24: 56.007 : en: Chapter 12
    01: 34: 04.972 : en: Chapter 13
    01: 39: 50.651 : en: Chapter 14
    01: 51: 48.118 : en: Chapter 15
    Скриншоты

    Релиз подготовил: Автор релиза:

    Онлайн видео Репортерша


    Размер скачиваемого торрента: 27.52 GB (29549500876 Bytes)

    Репортерша/Whiskey Tango Foxtrot (2016) BDRemux 1080p от ExKinoRay | Лицензия
    загрузка...
    Рейтинг →
     (голосов: 1, оценка 4/5, голосовать можно 1 раз )

    Другие торренты по теме:

  • Репортерша / Whiskey Tango Foxtrot (2016) BDRemux 1080p | Tunes
  • Репортерша / Whiskey Tango Foxtrot (2016) BDRip 1080p от ExKinoRay | iTunes
  • Репортерша / Whiskey Tango Foxtrot (2016) HDRip от Scarabey | iTunes
  • Репортерша / Whiskey Tango Foxtrot (2016) HDRip от MegaPeer | Лицензия
  • Репортерша / Whiskey Tango Foxtrot (2016) BDRip 720p от ExKinoRay | Лицензия
  • Репортерша / Whiskey Tango Foxtrot (2016) BDRip-AVC от New-Team | Лицензия
  • Репортерша / Whiskey Tango Foxtrot (2016) BDRip от HQ-ViDEO
  • Репортерша / Whiskey Tango Foxtrot (2016) BDRip | А


    • Комментарии (0):

      Информация

      Информация

        Посетители, находящиеся в группе Гости, не могут оставлять комментарии в данной новости.

        ↓ Меню



        ↓ Опрос

        А Вы добавили сайт в закладки?
        Да
        Не


        Top 10 за месяц (Фильмы)