.
Авторизация | Регистрация
Хочешь лучшие торренты? Добавь свой email!
Добавить
» » На Чесапикских берегах / Chesapeake Shores (2016) HDTV 720р | NEON Studio скачать торрент бесплатно




    На Чесапикских берегах / Chesapeake Shores (2016) HDTV 720р | NEON Studio скачать торрент бесплатно

    Опубликовал: Админ | Дата: 19-08-2016, 05:01 | Просмотров: 36



    Русское название: На Чесапикских берегах
    Русское название в мировом прокате: Chesapeake Shores
    Создали в: 2016
    Категория жанра: драма, семейный
    Главный режиссер: Мартин Вуд

    Актеры

    Меган Ори, Джесси Меткалф, Барбара Нивен, Дайан Лэдд, Трит Уильямс, Лейси Дж Мейли, Эмили Уллерап, Серж Уд, Вина Суд, Кэйден Магнусон и др.
    Описание сериала:
    Это история многочисленного семейства О;Брайенов. Один из главных персонажей – архитектор и градостроитель Мик О;Брайен. Когда-то он решил создать коммуну на берегу Чесапикского залива, на земле, которой владели ещё его предки. Трудоголик, Мик своей поглощённостью работой и упорством разрушил собственную семью и совсем испортил отношения с братьями. Жена от него ушла, но пятерых детей он ей не отдал, а отправил на воспитание своей матери Нелл.
    Прошли годы, дети, уже взрослые, один за другим начали съезжаться в Чизпик, чтобы воссоединить семью, найти понимание с отцом и попытаться примириться с матерью, которая, как они считают, их бросила. Да и братьям Мика нужно забыть былые обиды. Хорошо, что у этого разношерстного семейства есть Нелл, которая скрепляет О;Брайенов в единое целое!

    Снималось в: США
    Время просмотра: ~01: 20: 00
    Перевод текста: Любительский (двухголосый) NEON Studio
    Субтитры: Отсутствуют

    Файл
    Тип видео: MKV
    Качество фильма: HDTV (720p)
    Информация о видео: MPEG-4 AVC, ~ 3000 Кбит/с, 1280x720
    Информация о звуке: 48 kHz, AC3 Dolby Digital, 2/0 (L, R) ch, ~192 kbps
    Релиз группа:

    MediaInfo
    Формат : Matroska
    Версия формата : Version 2
    Размер файла : 1, 82 Гбайт
    Продолжительность : 1 ч. 21 м.
    Общий поток : 3191 Кбит/сек
    Дата кодирования : UTC 2016-08-17 07: 48: 25
    Программа кодирования : mkvmerge v4.9.1 (;Ich will;) сборка от Jul 11 2011 23: 53: 15
    Библиотека кодирования : libebml v1.2.1 + libmatroska v1.1.1
    Видео
    Идентификатор : 1
    Формат : AVC
    Формат/Информация : Advanced Video Codec
    Профиль формата : Main@L5.1
    Параметр CABAC формата : Да
    Параметр ReFrames формата : 1 кадр
    Режим смешивания : Header stripping
    Идентификатор кодека : V_MPEG4/ISO/AVC
    Продолжительность : 1 ч. 21 м.
    Битрейт : 2936 Кбит/сек
    Ширина : 1280 пикселей
    Высота : 720 пикселей
    Соотношение сторон : 16: 9
    Режим частоты кадров : Постоянный
    Частота кадров : 23, 976 (23976/1000) кадра/сек
    Цветовое пространство : YUV
    Субдискретизация насыщенности : 4: 2: 0
    Битовая глубина : 8 бит
    Тип развёртки : Прогрессивная
    Бит/(Пиксели*Кадры) : 0.133
    Размер потока : 1, 68 Гбайт (92%)
    Default : Да
    Forced : Нет
    Аудио
    Идентификатор : 2
    Формат : AC-3
    Формат/Информация : Audio Coding 3
    Расширение режима : CM (complete main)
    Параметр Endianness формата : Big
    Режим смешивания : Header stripping
    Идентификатор кодека : A_AC3
    Продолжительность : 1 ч. 21 м.
    Вид битрейта : Постоянный
    Битрейт : 192 Кбит/сек
    Каналы : 2 канала
    Расположение каналов : Front: L R
    Частота : 48, 0 КГц
    Частота кадров : 31, 250 кадров/сек (1536 spf)
    Метод сжатия : С потерями
    Размер потока : 112 Мбайт (6%)
    Default : Да
    Forced : Нет
    Внимание! Раздача ведётся путём добавления новых серий
    Внимание! Раздача ведётся путём добавления новых серий; при каждом добавлении создаётся новый торрент. Чтобы начать докачку новой серии, пользователям необходимо сделать следующее:
    (1) остановить скачивание,
    (2) удалить старый торрент у себя из клиента (старые серии удалять не надо),
    (3) скачать новый торрент и запустить его у себя в клиенте вместо старого, при этом указать клиенту путь в старую папку куда и должно происходить скачивание новых серий.
    Ваш клиент при этом должен произвести хеширование (проверку) старой папки (если не производит сам - помогите ему сделать это), и будет докачивать только те серии которых у вас ещё нет. Старые серии при этом не удаляются, а продолжают раздаваться!
    Eсли вы уже удалили старые серии, то предотвратить повторную закачку старых серий можно, отжав галочку в соответсвующих местах при запуске нового торрента. По возможности, желательно не удалять старые серии как можно дольше чтобы релизёр не столько продолжал раздавать старые серии, а смог сконцентрироваться на новых.
    Скриншоты

    Залил: SPARTA111

    Онлайн видео На Чесапикских берегах


    Размер скачиваемого торрента: 1.82 GB (1955567354 Bytes)

    На Чесапикских берегах/Chesapeake Shores (2016) HDTV 720р | NEON Studio
    загрузка...
    Рейтинг →
     (голосов: 1, оценка 5/5, голосовать можно 1 раз )

    Другие торренты по теме:

  • На Чесапикских берегах / Chesapeake Shores (2017) HDTV 720р | NEON Studio
  • На Чесапикских берегах / Chesapeake Shores (2017) HDTVRip | NEON Studio


    • Комментарии (0):

      Информация

      Информация

        Посетители, находящиеся в группе Гости, не могут оставлять комментарии в данной новости.

        ↓ Меню



        ↓ Опрос

        А Вы добавили сайт в закладки?
        Да
        Не


        Top 10 за месяц (Фильмы)