.
Авторизация | Регистрация
Хочешь лучшие торренты? Добавь свой email!
Добавить
» » Падение Лондона / London Has Fallen (2016) BDRip | Лицензия скачать торрент бесплатно




    Падение Лондона / London Has Fallen (2016) BDRip | Лицензия скачать торрент бесплатно

    Опубликовал: Админ | Дата: 19-08-2016, 05:00 | Просмотров: 10294



    Приготовься к кровавому аду
    Детально о кино
    Русское название: Падение Лондона
    Русское название в мировом прокате: London Has Fallen
    Создали в: 2016
    Категория жанра: Боевик, триллер, драма, криминал
    Главный режиссер: Бабак Наджафи

    Актеры
    Джерард Батлер, Аарон Экхарт, Морган Фримен, Алон Абутбул, Валид Зуэйтер, Адель Беншериф, Мехди Дехби, Шивани Гаи, Мартин Петрушев, Оуэн Дэвис, Майкл Уилдман, Рада Митчелл, Стэйси Шэйн, Пенни Дауни, Кларксон Гай Уильямс, Патрик Кеннеди, Колин Сэлмон, Анджела Бассетт, Дебора Грант, Эндрю Плевин

    Сюжет фильма

    Действие фильма начинается в Лондоне, где премьер-министр Великобритании погибает при загадочных обстоятельствах. На похоронах безусловно присутствуют руководители западного мира. Но то, что начиналось как наиболее безопасное событие на земле, превращается в опаснейшее покушение на самых мощных мировых лидеров, что в свою очередь ставит под угрозу будущее всего мира. Только три человека сохраняют надежду на предотвращение катастрофы: президент США, его верный помощник — агент спецслужбы и английский агент МИ-6, который никому не доверяет.

    Снималось в: США, Великобритания, Болгария
    Киностудия: Gerard Butler Alan Siegel Entertainment, LHF Film, Millennium Films
    Время просмотра: 01: 38: 42
    Перевод текста: Профессиональный (полное дублирование)BD RUS
    Файл
    Качество фильма: BDRip (исх.Падение Лондона/London Has Fallen (2016) BDRemux 1080p )
    Кодек для видео: XviD
    Информация о видео: 720x304 (2, 35: 1), 23, 976 fps, XviD ~1662 kbps avg, 0.317 bit/pixel
    Информация о звуке: 48 kHz, AC3, 6 ch, ~448.00 kbps avg | русский |Профессиональный (полное дублирование)BD RUS
    Субтитры: Отсутствуют
    Семпл
    Инфо-файл
    Общее
    Полное имя : D: TorrentsЗавершенныеLondon Has Fallen.2016.D.BDRip.avi
    Формат : AVI
    Формат/Информация : Audio Video Interleave
    Размер файла : 1, 46 Гбайт
    Продолжительность : 1 ч. 38 м.
    Общий поток : 2120 Кбит/сек
    Программа кодирования : VirtualDubMod 1.5.10.3 (build 2550/release)
    Библиотека кодирования : VirtualDubMod build 2550/release
    Видео
    Идентификатор : 0
    Формат : MPEG-4 Visual
    Профиль формата : Advanced Simple@L5
    Параметр BVOP формата : 2
    Параметр QPel формата : Нет
    Параметр GMC формата : Без точки перехода
    Параметр матрицы формата : Default (MPEG)
    Идентификатор кодека : XVID
    Идентификатор кодека/Подсказка : XviD
    Продолжительность : 1 ч. 38 м.
    Битрейт : 1662 Кбит/сек
    Ширина : 720 пикселей
    Высота : 304 пикселя
    Соотношение сторон : 2, 35: 1
    Частота кадров : 23, 976 (24000/1001) кадра/сек
    Цветовое пространство : YUV
    Субдискретизация насыщенности : 4: 2: 0
    Битовая глубина : 8 бит
    Тип развёртки : Прогрессивная
    Метод сжатия : С потерями
    Бит/(Пиксели*Кадры) : 0.317
    Размер потока : 1, 15 Гбайт (78%)
    Библиотека кодирования : XviD 73
    Аудио
    Идентификатор : 1
    Формат : AC-3
    Формат/Информация : Audio Coding 3
    Расширение режима : CM (complete main)
    Параметр Endianness формата : Big
    Идентификатор кодека : 2000
    Продолжительность : 1 ч. 38 м.
    Вид битрейта : Постоянный
    Битрейт : 448 Кбит/сек
    Каналы : 6 каналов
    Расположение каналов : Front: L C R, Side: L R, LFE
    Частота : 48, 0 КГц
    Частота кадров : 31, 250 кадров/сек (1536 spf)
    Метод сжатия : С потерями
    Размер потока : 316 Мбайт (21%)
    Выравнивание : Разделение по промежуткам
    Продолжительность промежутка : 42 мс. (1, 00 видеокадр)
    Время предзагрузки промежутка : 500 мс.
    Скриншоты


    Онлайн видео Падение Лондона


    Размер скачиваемого торрента: 1.46 GB (1568974848 Bytes)

    Падение Лондона/London Has Fallen (2016) BDRip | Лицензия
    загрузка...
    Рейтинг →
     (голосов: 1, оценка 5/5, голосовать можно 1 раз )

    Другие торренты по теме:

  • Падение Лондона (2016)
  • Падение Лондона / London Has Fallen (2016) WEBRip от Twi7ter | Line
  • Падение Лондона / London Has Fallen (2016) WEB-DL 720p | iTunes
  • Падение Лондона / London Has Fallen (2016) WEB-DLRip-AVC от Scarabey | iTunes
  • Падение Лондона / London Has Fallen (2016) WEB-DLRip от KinoHitHD | КПК | iTunes
  • Падение Лондона / London Has Fallen (2016) HDRip от MegaPeer | iTunes
  • Падение Лондона / London Has Fallen (2016) BDRip 1080p | iTunes
  • Падение Лондона / London Has Fallen (2016) BDRip-AVC | iTunes


    • Комментарии (0):

      Информация

      Информация

        Посетители, находящиеся в группе Гости, не могут оставлять комментарии в данной новости.

        ↓ Меню



        ↓ Опрос

        А Вы добавили сайт в закладки?
        Да
        Не


        Top 10 за месяц (Фильмы)