.
Авторизация | Регистрация
Хочешь лучшие торренты? Добавь свой email!
Добавить
» » Эдди Орел / Eddie the Eagle (2016) BDRip 720p от ExKinoRay | Лицензия скачать торрент бесплатно




    Эдди Орел / Eddie the Eagle (2016) BDRip 720p от ExKinoRay | Лицензия скачать торрент бесплатно

    Опубликовал: Админ | Дата: 19-08-2016, 05:00 | Просмотров: 48



    Детально о кино
    Русское название: Эдди Орел
    Русское название в мировом прокате: Eddie the Eagle
    Создали в: 2016
    Категория жанра: Драма, комедия, биография, спорт
    Главный режиссер: Декстер Флетчер

    Актеры
    Тэрон Эджертон, Хью Джекман, Кристофер Уокен, Джо Хартли, Том Костелло, Кит Аллен, Дикон Толсон, Джек Костелло, Марк Бентон, Тим МакИннерни, Эдвин Эндре, Мэдс Сьёгард Петтерсен, Марк Бенжамин, Айрис Бербен, Рюн Темт, Карлтон Банс, Йоахим Рааф, Шон Джексон, Дэниэл Ингс, Джим Бродбент
    О фильме:
    Фильм повествует о трамплинисте Эдди, по прозвищу Орел. Он прославился благодаря своим неудачам, ибо на всех соревнованиях он занимал последние места.

    Снималось в: Великобритания, США, Германия
    Киностудия: Marv Films, Saville Productions, Studio Babelsberg
    Время просмотра: 01: 45: 00
    Перевод текста: Дублированный | Лицензия Blu-Ray CEE
    Файл
    Кодек для видео: MPEG-4
    Качество фильма: BDRip 720p
    Информация о видео: 1280x536, 9901 Kbit/s, 23.976 fps
    Информация о звуке:
    Информация о звуке #01: 48 kHz, DTS, 5.1, 768 Kbps | Дублированный | Лицензия Blu-Ray CEE |
    Информация о звуке #02: 48 kHz, AC3, 5.1, 448 Kbps | Дублированный | Лицензия Blu-Ray CEE |
    Информация о звуке #03: 48 kHz, DTS, 5.1, 1510 kbps | Оригинал |
    Субтитры: Русские (forced, full), английские (forced, full, SDH)

    MI
    General
    Unique ID : 173681615694528063985059755190280795125 (0x82A9DCC93B8744E4A434905B035033F5)
    Complete name : G: VideoEddie the Eagle.2016.D.BDRip.720p.ExKinoRay.mkv
    Format : Matroska
    Format version : Version 4/Version 2
    File size : 9.32 GiB
    Duration : 1 h 45 min
    Overall bit rate : 12.6 Mb/s
    Movie name : Eddie the Eagle.2016.D.BDRip.720p.ExKinoRay
    Encoded date : UTC 2016-08-18 12: 22: 10
    Writing application : mkvmerge v8.3.0 (;Over the Horizon;) 64bit
    Writing library : libebml v1.3.1 + libmatroska v1.4.2
    Video
    ID : 1
    Format : AVC
    Format/Info : Advanced Video Codec
    Format profile : High@L4.1
    Format settings, CABAC : Yes
    Format settings, ReFrames : 12 frames
    Codec ID : V_MPEG4/ISO/AVC
    Duration : 1 h 45 min
    Bit rate : 9 901 kb/s
    Width : 1 280 pixels
    Height : 536 pixels
    Display aspect ratio : 2.40: 1
    Frame rate mode : Constant
    Frame rate : 23.976 (24000/1001) FPS
    Color space : YUV
    Chroma subsampling : 4: 2: 0
    Bit depth : 8 bits
    Scan type : Progressive
    Bits/(Pixel*Frame) : 0.602
    Stream size : 7.30 GiB (78%)
    Writing library : x264 core 146 r2538 121396c
    Encoding settings : cabac=1/ref=12/deblock=1: -3: -3/analyse=0x3: 0x133/me=tesa/subme=10/psy=1/psy_rd=1.10: 0.00/mixed_ref=1/me_range=32/chroma_me=1/trellis=2/8x8dct=1/cqm=0/deadzone=21, 11/fast_pskip=0/chroma_qp_offset=-2/threads=6/lookahead_threads=2/sliced_threads=0/nr=0/decimate=0/interlaced=0/bluray_compat=0/constrained_intra=0/bframes=8/b_pyramid=2/b_adapt=2/b_bias=0/direct=3/weightb=1/open_gop=0/weightp=2/keyint=240/keyint_min=23/scenecut=40/intra_refresh=0/rc_lookahead=150/rc=2pass/mbtree=1/bitrate=9901/ratetol=1.0/qcomp=0.70/qpmin=0/qpmax=69/qpstep=4/cplxblur=20.0/qblur=0.5/vbv_maxrate=50000/vbv_bufsize=62500/nal_hrd=none/filler=0/ip_ratio=1.40/aq=3: 0.80
    Language : English
    Default : Yes
    Forced : No
    Audio #1
    ID : 2
    Format : DTS
    Format/Info : Digital Theater Systems
    Mode : 16
    Format settings, Endianness : Big
    Codec ID : A_DTS
    Duration : 1 h 45 min
    Bit rate mode : Constant
    Bit rate : 768 kb/s
    Channel(s) : 6 channels
    Channel positions : Front: L C R, Side: L R, LFE
    Sampling rate : 48.0 kHz
    Frame rate : 93.750 FPS (512 spf)
    Bit depth : 24 bits
    Compression mode : Lossy
    Stream size : 581 MiB (6%)
    Title : DUB-DTS Blu-Ray CEE
    Language : Russian
    Default : Yes
    Forced : No
    Audio #2
    ID : 3
    Format : AC-3
    Format/Info : Audio Coding 3
    Mode extension : CM (complete main)
    Format settings, Endianness : Big
    Codec ID : A_AC3
    Duration : 1 h 45 min
    Bit rate mode : Constant
    Bit rate : 448 kb/s
    Channel(s) : 6 channels
    Channel positions : Front: L C R, Side: L R, LFE
    Sampling rate : 48.0 kHz
    Frame rate : 31.250 FPS (1536 spf)
    Compression mode : Lossy
    Stream size : 339 MiB (4%)
    Title : DUB-AC3 Blu-Ray CEE
    Language : Russian
    Default : No
    Forced : No
    Audio #3
    ID : 4
    Format : DTS
    Format/Info : Digital Theater Systems
    Mode : 16
    Format settings, Endianness : Big
    Codec ID : A_DTS
    Duration : 1 h 45 min
    Bit rate mode : Constant
    Bit rate : 1 509 kb/s
    Channel(s) : 6 channels
    Channel positions : Front: L C R, Side: L R, LFE
    Sampling rate : 48.0 kHz
    Frame rate : 93.750 FPS (512 spf)
    Bit depth : 24 bits
    Compression mode : Lossy
    Stream size : 1.11 GiB (12%)
    Title : Original
    Language : English
    Default : No
    Forced : No
    Text #1
    ID : 5
    Format : UTF-8
    Codec ID : S_TEXT/UTF8
    Codec ID/Info : UTF-8 Plain Text
    Duration : 1 h 40 min
    Bit rate : 2 b/s
    Count of elements : 25
    Stream size : 1.53 KiB (0%)
    Title : Forced
    Language : Russian
    Default : Yes
    Forced : No
    Text #2
    ID : 6
    Format : UTF-8
    Codec ID : S_TEXT/UTF8
    Codec ID/Info : UTF-8 Plain Text
    Duration : 1 h 40 min
    Bit rate : 88 b/s
    Count of elements : 1143
    Stream size : 65.0 KiB (0%)
    Title : Full
    Language : Russian
    Default : No
    Forced : No
    Text #3
    ID : 7
    Format : UTF-8
    Codec ID : S_TEXT/UTF8
    Codec ID/Info : UTF-8 Plain Text
    Duration : 1 h 39 min
    Bit rate : 55 b/s
    Count of elements : 1105
    Stream size : 40.5 KiB (0%)
    Title : Full
    Language : English
    Default : No
    Forced : No
    Text #4
    ID : 8
    Format : UTF-8
    Codec ID : S_TEXT/UTF8
    Codec ID/Info : UTF-8 Plain Text
    Duration : 1 h 44 min
    Bit rate : 62 b/s
    Count of elements : 1640
    Stream size : 47.7 KiB (0%)
    Title : SDH
    Language : English
    Default : No
    Forced : No
    Menu
    00: 00: 00.000 : en: Chapter 01
    00: 03: 33.171 : en: Chapter 02
    00: 08: 15.161 : en: Chapter 03
    00: 12: 06.684 : en: Chapter 04
    00: 17: 54.573 : en: Chapter 05
    00: 21: 31.081 : en: Chapter 06
    00: 26: 19.578 : en: Chapter 07
    00: 31: 41.566 : en: Chapter 08
    00: 37: 13.272 : en: Chapter 09
    00: 41: 46.962 : en: Chapter 10
    00: 47: 12.329 : en: Chapter 11
    00: 50: 19.349 : en: Chapter 12
    00: 53: 39.591 : en: Chapter 13
    00: 56: 57.580 : en: Chapter 14
    01: 02: 22.905 : en: Chapter 15
    01: 08: 16.884 : en: Chapter 16
    01: 11: 42.298 : en: Chapter 17
    01: 17: 05.787 : en: Chapter 18
    01: 20: 00.587 : en: Chapter 19
    01: 23: 23.456 : en: Chapter 20
    01: 27: 44.592 : en: Chapter 21
    01: 31: 40.119 : en: Chapter 22
    01: 36: 53.057 : en: Chapter 23
    01: 40: 42.077 : en: Chapter 24
    Скриншоты

    Релиз подготовил: Автор релиза:

    Онлайн видео Эдди Орел


    Размер скачиваемого торрента: 9.32 GB (10004634969 Bytes)

    Эдди Орел/Eddie the Eagle (2016) BDRip 720p от ExKinoRay | Лицензия
    загрузка...
    Рейтинг →
     (голосов: 1, оценка 3/5, голосовать можно 1 раз )

    Другие торренты по теме:

  • Эдди Орел / Eddie the Eagle (2016) WEBRip 720p | Line
  • Эдди Орел / Eddie the Eagle (2016) WEB-DLRip от Scarabey | iTunes
  • Эдди Орел / Eddie the Eagle (2016) WEB-DLRip от Scarabey | iTunes
  • Эдди Орел / Eddie the Eagle (2016) WEB-DLRip-AVC от Scarabey | iTunes
  • Эдди «Орел» / Eddie the Eagle (2016)
  • Эдди Орел / Eddie the Eagle (2016) WEB-DL 720p | iTunes
  • Эдди Орел / Eddie the Eagle (2016) BDRip 720p | iTunes
  • Эдди Орел / Eddie the Eagle (2016) HDRip от MegaPeer | iTunes


    • Комментарии (0):

      Информация

      Информация

        Посетители, находящиеся в группе Гости, не могут оставлять комментарии в данной новости.

        ↓ Меню



        ↓ Опрос

        А Вы добавили сайт в закладки?
        Да
        Не


        Top 10 за месяц (Фильмы)