.
Авторизация | Регистрация
Хочешь лучшие торренты? Добавь свой email!
Добавить
» » Я всегда знал, что вы сделали прошлым летом / Ill Always Know What You Did Last Summe (2006) WEB-DLRip-AVC | P скачать торрент бесплатно




    Я всегда знал, что вы сделали прошлым летом / Ill Always Know What You Did Last Summe (2006) WEB-DLRip-AVC | P скачать торрент бесплатно

    Опубликовал: Админ | Дата: 18-08-2016, 05:00 | Просмотров: 43



    Создали в: США/Destination Films, Original Film, Screen Gems
    Категория жанра: Ужасы
    Главный режиссер: Сильвен Уай
    Актеры: Брук Невин, Кей Си Клайд, Торри ДеВито, Бен Истер, Стар ЛаПойнт, Сэт Пакард, Майкл Флинн и др.

    Описание фильма

    У каждого свои секреты — и не всегда они безобидны. Некоторые из нас хотели бы похоронить свои тайны навечно. Вот только не у всех они желают покорно лежать в могиле памяти… Из-за глупого розыгрыша товарищей во время праздника гибнет один из пятерки закадычных друзей. Четверо оставшихся скрытно избавляются от тела, поклявшись навсегда забыть о происшедшем.
    Но ровно через год каждый из них получает анонимную записку, из которой следует: кто-то знает, что они сделали прошлым летом! И угрожающими посланиями этот кто-то ограничиваться не намерен. Таинственный незнакомец приговорил их к смерти, и если герои не смогут вычислить личность неведомого мстителя, на сей раз их жуткий секрет точно будет погребен насовсем — вместе с их бездыханными телами…

    Время просмотра: 01: 32: 24
    Качество фильма видео: WEB-DLRip-AVC
    Перевод текста: Профессиональный (многоголосный, закадровый) R5 Columbia/Sony
    Информация о видео: AVC, 1024x556 (16: 9), 23.976 fps, 1 875 Kbps (0.137 bit/pixel)
    Информация о звуке: AC-3, 48.0 KHz, 6 ch, 384 Kbps, CBR
    Mediainfo:
    Формат : Matroska
    Версия формата : Version 2
    Размер файла : 1, 46 Гбайт
    Продолжительность : 1 ч. 32 м.
    Общий поток : 2258 Кбит/сек
    Дата кодирования : UTC 2016-08-17 17: 30: 56
    Программа кодирования : mkvmerge v5.3.0 (;I could have danced;) built on Feb 9 2012 10: 38: 07
    Библиотека кодирования : libebml v1.2.3 + libmatroska v1.3.0
    Attachment : Yes
    Видео
    Идентификатор : 1
    Формат : AVC
    Формат/Информация : Advanced Video Codec
    Профиль формата : High@L4.1
    Параметр CABAC формата : Да
    Параметр ReFrames формата : 9 кадров
    Идентификатор кодека : V_MPEG4/ISO/AVC
    Продолжительность : 1 ч. 32 м.
    Битрейт : 1875 Кбит/сек
    Ширина : 1024 пикселя
    Высота : 556 пикселей
    Соотношение сторон : 1, 85: 1
    Режим частоты кадров : Постоянный
    Частота кадров : 23, 976 кадра/сек
    Цветовое пространство : YUV
    Субдискретизация насыщенности : 4: 2: 0
    Битовая глубина : 8 бит
    Тип развёртки : Прогрессивная
    Бит/(Пиксели*Кадры) : 0.137
    Размер потока : 1, 18 Гбайт (81%)
    Библиотека кодирования : x264 core 146 r2538 121396c
    Настройки программы : cabac=1/ref=9/deblock=1: -3: -3/analyse=0x3: 0x133/me=umh/subme=10/psy=1/psy_rd=1.00: 0.10/mixed_ref=1/me_range=32/chroma_me=1/trellis=2/8x8dct=1/cqm=0/deadzone=21, 11/fast_pskip=0/chroma_qp_offset=-3/threads=12/lookahead_threads=2/sliced_threads=0/nr=0/decimate=1/interlaced=0/bluray_compat=0/constrained_intra=0/bframes=6/b_pyramid=2/b_adapt=2/b_bias=0/direct=3/weightb=1/open_gop=0/weightp=2/keyint=240/keyint_min=23/scenecut=40/intra_refresh=0/rc=2pass/mbtree=0/bitrate=1875/ratetol=1.0/qcomp=0.60/qpmin=0/qpmax=69/qpstep=4/cplxblur=20.0/qblur=0.5/ip_ratio=1.40/pb_ratio=1.30/aq=3: 0.80
    Default : Да
    Forced : Нет
    Аудио
    Идентификатор : 2
    Формат : AC-3
    Формат/Информация : Audio Coding 3
    Расширение режима : CM (complete main)
    Параметр Endianness формата : Big
    Идентификатор кодека : A_AC3
    Продолжительность : 1 ч. 32 м.
    Вид битрейта : Постоянный
    Битрейт : 384 Кбит/сек
    Каналы : 6 каналов
    Расположение каналов : Front: L C R, Side: L R, LFE
    Частота : 48, 0 КГц
    Битовая глубина : 16 бит
    Метод сжатия : С потерями
    Размер потока : 254 Мбайт (17%)
    Default : Да
    Forced : Нет

    Скриншоты:


    Онлайн видео Я всегда знал, что вы сделали прошлым летом


    Размер скачиваемого торрента: 1.46 GB (1564640943 Bytes)

    Я всегда знал, что вы сделали прошлым летом/Ill Always Know What You Did Last Summe (2006) WEB-DLRip-AVC | P
    загрузка...
    Рейтинг →
     (голосов: 1, оценка 3/5, голосовать можно 1 раз )

    Другие торренты по теме:

  • Всегда говори Всегда (2003-2012) TVRip
  • Всегда говори Всегда (2003-2012) l WEBDL-AVC скачать через торрент бесплатно
  • Lumen - Всегда 17 - Всегда Война (2015) MP3
  • В Филадельфии всегда солнечно / Its Always Sunny in Philadelphia (2012) WEB-DLRip | LostFilm
  • Пациент всегда прав / Royal Pains (2012) WEB-DLRip | NewStudio
  • Всегда: Закат на Третьей Авеню 3 / Always - Sunset on Third Street 3 / Always 3 chome no yuhi 64 (2012) DVDRip
  • Всегда: Закат на Третьей Авеню 2 / Always - Sunset on Third Street 2 / Always zoku san-chome no yuhi (2007) DVDRip-AVC
  • Правило №1: Шеф всегда прав / Bossn Up (2005) DVDRip от Киномагия | P


    • Комментарии (0):

      Информация

      Информация

        Посетители, находящиеся в группе Гости, не могут оставлять комментарии в данной новости.

        ↓ Меню



        ↓ Опрос

        А Вы добавили сайт в закладки?
        Да
        Не


        Top 10 за месяц (Фильмы)