.
Авторизация | Регистрация
Хочешь лучшие торренты? Добавь свой email!
Добавить
» » Ускорение / Momentum (2015) BDRip 720p от ExKinoRay | GER Transfer | Лицензия скачать торрент бесплатно




    Ускорение / Momentum (2015) BDRip 720p от ExKinoRay | GER Transfer | Лицензия скачать торрент бесплатно

    Опубликовал: Админ | Дата: 18-08-2016, 05:00 | Просмотров: 43



    Детально о кино
    Русское название: Ускорение
    Русское название в мировом прокате: Momentum
    Создали в: 2015
    Категория жанра: Боевик, триллер
    Главный режиссер: Стивен С. Кампанелли

    Актеры
    Ольга Куриленко, Морган Фримен, Джеймс Пьюрфой, Дженна Сарас, Ли-Энн Саммерс, Сабина Палфи, Лиза Леонард, Мэриэн Фризелл, Эбби Уэйим, Карл Танинг, Ли Равив, Дилан Эди, Шелли Николь, Эйдан Уайток, Скот Купер, Грант Робертс, Ричард Лотиан, Колин Мосс, Дэниэл Фокс, Джо Ваз
    О фильме:
    Алекс, опытная воровка, соглашается совершить свое последнее ограбление... Но все идет не по плану. Теперь ей - красивой, сильной и безжалостной femme fatale - угрожает опасность. И неудачное ограбление - не единственная проблема. Она перешла дорогу секретному международному синдикату, который ищет нечто более ценное, чем бриллианты. С этого момента для Алекс единственный способ спастись - бежать. И как можно быстрее.

    Снималось в: США, ЮАР
    Киностудия: Azari Media, Thaba Media
    Время просмотра: 01: 36: 04
    Перевод текста: Дублированный | Лицензия Blu-Ray GER Transfer
    Файл
    Кодек для видео: MPEG-4
    Качество фильма: BDRip 720
    Информация о видео: 1280x536, 5523 Kbit/s, 23.976 fps
    Информация о звуке:
    Информация о звуке #01: 48 kHz, AC3, 5.1, 640 Kbps | Дублированный | Лицензия Blu-Ray GER Transfer |
    Информация о звуке #02: 48 kHz, DTS, 5.1, 1536 Kbps | Дублированный | Лицензия Blu-Ray GER Transfer |
    Информация о звуке #02: 48 kHz, DTS, 5.1, 1510 kbps | Оригинал |
    Субтитры: Русские, английские

    MI
    General
    Unique ID : 238120652744506633340816659502947707198 (0xB3245E9AD047C99BA2EAED38FC15293E)
    Complete name : G: VideoMomentum.2015.D.BDRip.720p.ExKinoRay.mkv
    Format : Matroska
    Format version : Version 4/Version 2
    File size : 6.18 GiB
    Duration : 1 h 36 min
    Overall bit rate : 9 208 kb/s
    Movie name : Momentum.2015.D.BDRip.7200p.ExKinoRay
    Encoded date : UTC 2016-08-17 21: 14: 22
    Writing application : mkvmerge v8.3.0 (;Over the Horizon;) 64bit
    Writing library : libebml v1.3.1 + libmatroska v1.4.2
    Video
    ID : 1
    Format : AVC
    Format/Info : Advanced Video Codec
    Format profile : High@L4.1
    Format settings, CABAC : Yes
    Format settings, ReFrames : 12 frames
    Codec ID : V_MPEG4/ISO/AVC
    Duration : 1 h 36 min
    Bit rate : 5 523 kb/s
    Width : 1 280 pixels
    Height : 536 pixels
    Display aspect ratio : 2.40: 1
    Frame rate mode : Constant
    Frame rate : 23.976 (24000/1001) FPS
    Color space : YUV
    Chroma subsampling : 4: 2: 0
    Bit depth : 8 bits
    Scan type : Progressive
    Bits/(Pixel*Frame) : 0.336
    Stream size : 3.71 GiB (60%)
    Writing library : x264 core 148 r2638 7599210
    Encoding settings : cabac=1/ref=12/deblock=1: -3: -3/analyse=0x3: 0x133/me=umh/subme=10/psy=1/psy_rd=1.01: 0.00/mixed_ref=1/me_range=32/chroma_me=1/trellis=2/8x8dct=1/cqm=0/deadzone=21, 11/fast_pskip=0/chroma_qp_offset=-2/threads=6/lookahead_threads=1/sliced_threads=0/nr=0/decimate=0/interlaced=0/bluray_compat=0/constrained_intra=0/bframes=11/b_pyramid=2/b_adapt=2/b_bias=0/direct=3/weightb=1/open_gop=0/weightp=2/keyint=250/keyint_min=24/scenecut=40/intra_refresh=0/rc_lookahead=60/rc=crf/mbtree=0/crf=17.0/qcomp=0.65/qpmin=0/qpmax=69/qpstep=4/vbv_maxrate=62500/vbv_bufsize=78125/crf_max=0.0/nal_hrd=none/filler=0/ip_ratio=1.28/pb_ratio=1.18/aq=3: 0.70/zones=0, 2061, crf=15.5/2270, 2414, crf=15.5/4633, 4667, crf=15.5/49065, 49525, crf=15.5/17205, 17305, crf=15.5/42590, 42811, crf=15.5/78841, 79087, crf=15.5/125501, 125621, crf=15.5/126380, 126727, crf=15.5/127166, 127839, crf=15.5/127873, 134502, crf=22.0
    Language : English
    Default : Yes
    Forced : No
    Audio #1
    ID : 2
    Format : AC-3
    Format/Info : Audio Coding 3
    Mode extension : CM (complete main)
    Format settings, Endianness : Big
    Codec ID : A_AC3
    Duration : 1 h 35 min
    Bit rate mode : Constant
    Bit rate : 640 kb/s
    Channel(s) : 6 channels
    Channel positions : Front: L C R, Side: L R, LFE
    Sampling rate : 48.0 kHz
    Frame rate : 31.250 FPS (1536 spf)
    Compression mode : Lossy
    Stream size : 439 MiB (7%)
    Title : DUB-AC3 GER Transfer
    Language : Russian
    Default : Yes
    Forced : No
    Audio #2
    ID : 3
    Format : DTS
    Format/Info : Digital Theater Systems
    Mode : 16
    Format settings, Endianness : Big
    Codec ID : A_DTS
    Duration : 1 h 35 min
    Bit rate mode : Constant
    Bit rate : 1 536 kb/s
    Channel(s) : 6 channels
    Channel positions : Front: L C R, Side: L R, LFE
    Sampling rate : 48.0 kHz
    Frame rate : 93.750 FPS (512 spf)
    Bit depth : 16 bits
    Compression mode : Lossy
    Stream size : 1.03 GiB (17%)
    Title : DUB-DTS GER Transfer
    Language : Russian
    Default : No
    Forced : No
    Audio #3
    ID : 4
    Format : DTS
    Format/Info : Digital Theater Systems
    Mode : 16
    Format settings, Endianness : Big
    Codec ID : A_DTS
    Duration : 1 h 36 min
    Bit rate mode : Constant
    Bit rate : 1 510 kb/s
    Channel(s) : 6 channels
    Channel positions : Front: L C R, Side: L R, LFE
    Sampling rate : 48.0 kHz
    Frame rate : 93.750 FPS (512 spf)
    Bit depth : 24 bits
    Compression mode : Lossy
    Stream size : 1.01 GiB (16%)
    Title : Original
    Language : English
    Default : No
    Forced : No
    Text #1
    ID : 5
    Format : UTF-8
    Codec ID : S_TEXT/UTF8
    Codec ID/Info : UTF-8 Plain Text
    Duration : 1 h 28 min
    Bit rate : 77 b/s
    Count of elements : 802
    Stream size : 50.0 KiB (0%)
    Title : Full
    Language : Russian
    Default : No
    Forced : No
    Text #2
    ID : 6
    Format : UTF-8
    Codec ID : S_TEXT/UTF8
    Codec ID/Info : UTF-8 Plain Text
    Duration : 1 h 28 min
    Bit rate : 46 b/s
    Count of elements : 1201
    Stream size : 30.3 KiB (0%)
    Title : Full
    Language : English
    Default : No
    Forced : No
    Menu
    00: 00: 00.000 : en: 00: 00: 00.000
    00: 11: 59.427 : en: 00: 11: 59.427
    00: 23: 04.425 : en: 00: 23: 04.425
    00: 33: 35.639 : en: 00: 33: 35.639
    00: 43: 34.695 : en: 00: 43: 34.695
    00: 54: 18.964 : en: 00: 54: 18.964
    01: 02: 51.393 : en: 01: 02: 51.393
    01: 14: 14.867 : en: 01: 14: 14.867
    01: 28: 55.705 : en: 01: 28: 55.705
    Скриншоты

    Релиз подготовил: Автор релиза:

    Онлайн видео Ускорение


    Размер скачиваемого торрента: 6.18 GB (6634189845 Bytes)

    Ускорение/Momentum (2015) BDRip 720p от ExKinoRay | GER Transfer | Лицензия
    загрузка...
    Рейтинг →
     (голосов: 1, оценка 3/5, голосовать можно 1 раз )

    Другие торренты по теме:

  • Ускорение / Momentum (2015) WEB-DLRip-AVC | iTunes
  • Ускорение / Momentum / 2015 / ДБ / WEB-DL (720p)
  • Ускорение / Momentum / 2015 / ДБ / WEB-DLRip (AVC)
  • Ускорение / Momentum (2015) BDRip 1080p | Лицензия
  • Ускорение / Momentum / 2015 / ДБ / DVD-9
  • Ускорение / Momentum / 2015 / ДБ, СТ / GER Transfer / BDRip (1080p)
  • Ускорение / Momentum (2015) BDRip от HQ-ViDEO | Лицензия


    • Комментарии (0):

      Информация

      Информация

        Посетители, находящиеся в группе Гости, не могут оставлять комментарии в данной новости.

        ↓ Меню



        ↓ Опрос

        А Вы добавили сайт в закладки?
        Да
        Не


        Top 10 за месяц (Фильмы)