.
Авторизация | Регистрация
Хочешь лучшие торренты? Добавь свой email!
Добавить
» » Незнакомцы / The Strangers (2008) DVD-9 от NovaLan | D скачать торрент бесплатно




    Незнакомцы / The Strangers (2008) DVD-9 от NovaLan | D скачать торрент бесплатно

    Опубликовал: Админ | Дата: 18-08-2016, 05:00 | Просмотров: 17



    Детально о кино
    Русское название: Незнакомцы
    Русское название в мировом прокате: The Strangers
    Создали в: 2008
    Категория жанра: Ужасы, триллер
    Главный режиссер: Брайан Бертино

    Актеры
    Лив Тайлер, Скотт Спидман, Джемма Уорд, Алекс Фишер, Питер Клейтон-Люк, Кип Викс, Лаура Маргулис, Гленн Хоуертон

    Сюжет фильма
    Молодая пара укрылась от всего мира в лесном домике на краю света. Кажется, никто в мире не знает об их существовании… кроме трех незваных гостей… в масках…
    Снималось в: США
    Киностудия: Intrepid Pictures, Mandate Pictures, Rogue Pictures, Vertigo Entertainment
    Время просмотра: 01: 27: 29
    Перевод текста: Дублированный
    Файл
    Кодек для видео: MPEG-2
    Качество фильма: DVD-9
    Информация о видео: MPEG2, NTSC 16: 9 (720x480@853x480) VBR, 23, 976 кадров/сек
    Информация о звуке: Русский, Английский, Французский, Испанский DD 5.1 (448 Kbps)
    Меню

    DVDInfo

    Title:
    Size: 5.31 Gb ( 5 568 754 KBytes ) - DVD-9
    Enabled regions: 1, 2, 3, 4, 5, 6, 7, 8
    VTS_01 :
    Play Length: 01: 27: 29
    Video: NTSC 16: 9 (720x480) VBR, Auto PanScan
    Audio:
    Russian (Dolby AC3, 6 ch)
    English (Dolby AC3, 6 ch)
    Francais (Dolby AC3, 6 ch)
    Espanol (Dolby AC3, 6 ch)
    Menu Video:
    NTSC 4: 3 (704x480) VBR
    Menu English Language Unit :
    Root Menu
    MediaInfo

    Общее
    Полное имя : D: ААА2НЕЗНАКОМЦЫVIDEO_TSVTS_01_1.VOB
    Формат : MPEG-PS
    Размер файла : 1000 Мбайт
    Продолжительность : 16 м.
    Режим общего битрейта : Переменный
    Общий поток : 8518 Кбит/сек
    Видео
    Идентификатор : 224 (0xE0)
    Формат : MPEG Video
    Версия формата : Version 2
    Профиль формата : Main@Main
    Параметр BVOP формата : Да
    Параметр матрицы формата : Выборочная
    Параметр GOP формата : Variable
    Продолжительность : 16 м.
    Вид битрейта : Переменный
    Битрейт : 6557 Кбит/сек
    Максимальный битрейт : 9800 Кбит/сек
    Ширина : 720 пикселей
    Высота : 480 пикселей
    Соотношение сторон : 16: 9
    Частота кадров : 23, 976 кадра/сек
    Стандарт вещания : Component
    Цветовое пространство : YUV
    Субдискретизация насыщенности : 4: 2: 0
    Битовая глубина : 8 бит
    Тип развёртки : Прогрессивная
    Порядок развёртки : 2: 3 Pulldown
    Метод сжатия : С потерями
    Бит/(Пиксели*Кадры) : 0.791
    TimeCode_FirstFrame : 00: 59: 59;00
    TimeCode_Source : Group of pictures t_head
    Размер потока : 770 Мбайт (77%)
    Основные цвета : BT.601 NTSC
    Характеристики трансфера : BT.601
    Коэффициенты матрицы : BT.601
    Аудио #1
    Идентификатор : 189 (0xBD)-128 (0x80)
    Формат : AC-3
    Формат/Информация : Audio Coding 3
    Расширение режима : CM (complete main)
    Параметр Endianness формата : Big
    Режим смешивания : DVD-Video
    Продолжительность : 16 м.
    Вид битрейта : Постоянный
    Битрейт : 448 Кбит/сек
    Каналы : 6 каналов
    Расположение каналов : Front: L C R, Side: L R, LFE
    Частота : 48, 0 КГц
    Битовая глубина : 16 бит
    Метод сжатия : С потерями
    Размер потока : 52, 6 Мбайт (5%)
    Аудио #2
    Идентификатор : 189 (0xBD)-129 (0x81)
    Формат : AC-3
    Формат/Информация : Audio Coding 3
    Расширение режима : CM (complete main)
    Параметр Endianness формата : Big
    Режим смешивания : DVD-Video
    Продолжительность : 16 м.
    Вид битрейта : Постоянный
    Битрейт : 448 Кбит/сек
    Каналы : 6 каналов
    Расположение каналов : Front: L C R, Side: L R, LFE
    Частота : 48, 0 КГц
    Битовая глубина : 16 бит
    Метод сжатия : С потерями
    Размер потока : 52, 6 Мбайт (5%)
    Аудио #3
    Идентификатор : 189 (0xBD)-130 (0x82)
    Формат : AC-3
    Формат/Информация : Audio Coding 3
    Расширение режима : CM (complete main)
    Параметр Endianness формата : Big
    Режим смешивания : DVD-Video
    Продолжительность : 16 м.
    Вид битрейта : Постоянный
    Битрейт : 448 Кбит/сек
    Каналы : 6 каналов
    Расположение каналов : Front: L C R, Side: L R, LFE
    Частота : 48, 0 КГц
    Битовая глубина : 16 бит
    Метод сжатия : С потерями
    Размер потока : 52, 6 Мбайт (5%)
    Аудио #4
    Идентификатор : 189 (0xBD)-131 (0x83)
    Формат : AC-3
    Формат/Информация : Audio Coding 3
    Расширение режима : CM (complete main)
    Параметр Endianness формата : Big
    Режим смешивания : DVD-Video
    Продолжительность : 16 м.
    Вид битрейта : Постоянный
    Битрейт : 448 Кбит/сек
    Каналы : 6 каналов
    Расположение каналов : Front: L C R, Side: L R, LFE
    Частота : 48, 0 КГц
    Битовая глубина : 16 бит
    Метод сжатия : С потерями
    Размер потока : 52, 6 Мбайт (5%)
    Меню

    Скриншоты



    Релиз:
    Залил: YArl

    Онлайн видео Незнакомцы


    Размер скачиваемого торрента: 5.31 GB (5702404096 Bytes)

    Незнакомцы/The Strangers (2008) DVD-9 от NovaLan | D
    загрузка...
    Рейтинг →
     (голосов: 1, оценка 5/5, голосовать можно 1 раз )

    Другие торренты по теме:

  • OST - Незнакомцы / The Strangers (2008) MP3
  • Незнакомцы в поезде / Strangers on a Train (1951) BDRip от HQCLUB
  • Незнакомцы / The Strangers (2008) BDRemux 1080p | Unrated | D


    • Комментарии (0):

      Информация

      Информация

        Посетители, находящиеся в группе Гости, не могут оставлять комментарии в данной новости.

        ↓ Меню



        ↓ Опрос

        А Вы добавили сайт в закладки?
        Да
        Не


        Top 10 за месяц (Фильмы)