.
Авторизация | Регистрация
Хочешь лучшие торренты? Добавь свой email!
Добавить
» » Громче, чем бомбы / Louder Than Bombs (2015) BDRemux 1080i от ExKinoRay | iTunes скачать торрент бесплатно




    Громче, чем бомбы / Louder Than Bombs (2015) BDRemux 1080i от ExKinoRay | iTunes скачать торрент бесплатно

    Опубликовал: Админ | Дата: 17-08-2016, 05:00 | Просмотров: 55



    Детально о кино
    Русское название: Громче, чем бомбы
    Русское название в мировом прокате: Louder Than Bombs
    Создали в: 2015
    Категория жанра: Драма
    Главный режиссер: Йоаким Триер

    Актеры
    Гэбриел Бирн, Изабель Юппер, Джесси Айзенберг, Девин Друид, Эми Райан, Руби Джеринс, Меган Кетч, Дэвид Стрэтэйрн, Рэйчел Броснахэн, Расселл Познер
    О фильме:
    Одна семья, трое мужчин и три взгляда на любимую женщину. Стареющий плейбой и добродушный отец семейства, остепенившийся насмешливый старший сын и хмурый романтичный подросток хранят свои воспоминания о матери и жене, которая тихому пригороду Нью-Йорка предпочла военную фотографию. То забавные, то пронзительные истории о ней переплетаются с событиями сегодняшнего дня, где каждый из мужчин переживает новую любовь, которая все-таки громче, чем бомбы.

    Снималось в: Норвегия, Франция, Дания
    Киностудия: Motlys, Animal Kingdom, Arte France Cin?ma
    Время просмотра: 01: 48: 42
    Перевод текста: Дублированный | iTunes
    Файл
    Кодек для видео: MPEG-4
    Качество фильма: BDRemux 1080i
    Информация о видео: 1920x1080, 20.0 Mbit/s, 25.000 fps
    Информация о звуке:
    Информация о звуке #01: 48 kHz, AC3, 5.1, 384 Kbps | Дублированный | iTunes |
    Информация о звуке #02: 48 kHz, DTS-HD MA, 5.1, 1782 kbps | Оригинал |
    Субтитры: Английские

    MI
    General
    Unique ID : 193103851798536665007609979733932979098 (0x914672F54DA6A228BFEEB86BFA9F339A)
    Complete name : G: VideoLouder.Than.Bombs.2015.BDREMUX.1080i.ExKinoRay.mkv
    Format : Matroska
    Format version : Version 4/Version 2
    File size : 16.2 GiB
    Duration : 1h 44mn
    Overall bit rate mode : Variable
    Overall bit rate : 22.2 Mbps
    Movie name : Louder.Than.Bombs.2015.BDREMUX.1080i.ExKinoRay
    Encoded date : UTC 2016-08-16 12: 18: 20
    Writing application : mkvmerge v8.3.0 (;Over the Horizon;) 64bit
    Writing library : libebml v1.3.1 + libmatroska v1.4.2
    Video
    ID : 1
    Format : AVC
    Format/Info : Advanced Video Codec
    Format profile : High@L4.1
    Format settings, CABAC : Yes
    Format settings, ReFrames : 4 frames
    Codec ID : V_MPEG4/ISO/AVC
    Duration : 1h 44mn
    Bit rate mode : Variable
    Bit rate : 20.0 Mbps
    Maximum bit rate : 35.0 Mbps
    Width : 1 920 pixels
    Height : 1 080 pixels
    Display aspect ratio : 16: 9
    Frame rate mode : Constant
    Frame rate : 25.000 fps
    Standard : PAL
    Color space : YUV
    Chroma subsampling : 4: 2: 0
    Bit depth : 8 bits
    Scan type : MBAFF
    Scan type, store method : Interleaved fields
    Scan order : Top Field First
    Bits/(Pixel*Frame) : 0.386
    Stream size : 14.6 GiB (90%)
    Language : English
    Default : Yes
    Forced : No
    Color range : Limited
    Color primaries : BT.709
    Transfer characteristics : BT.709
    Matrix coefficients : BT.709
    Audio #1
    ID : 2
    Format : AC-3
    Format/Info : Audio Coding 3
    Mode extension : CM (complete main)
    Format settings, Endianness : Big
    Codec ID : A_AC3
    Duration : 1h 44mn
    Bit rate mode : Constant
    Bit rate : 384 Kbps
    Channel(s) : 6 channels
    Channel positions : Front: L C R, Side: L R, LFE
    Sampling rate : 48.0 KHz
    Frame rate : 31.250 fps (1536 spf)
    Compression mode : Lossy
    Stream size : 287 MiB (2%)
    Language : Russian
    Default : Yes
    Forced : No
    Audio #2
    ID : 3
    Format : DTS
    Format/Info : Digital Theater Systems
    Format profile : MA/Core
    Mode : 16
    Format settings, Endianness : Big
    Codec ID : A_DTS
    Duration : 1h 44mn
    Bit rate mode : Variable/Constant
    Bit rate : 1 782 Kbps/1 509 Kbps
    Channel(s) : 6 channels
    Channel positions : Front: L C R, Side: L R, LFE
    Sampling rate : 48.0 KHz
    Frame rate : 93.750 fps (512 spf)
    Bit depth : 16 bits
    Compression mode : Lossless/Lossy
    Stream size : 1.30 GiB (8%)
    Language : German
    Default : No
    Forced : No
    Text
    ID : 4
    Format : UTF-8
    Codec ID : S_TEXT/UTF8
    Codec ID/Info : UTF-8 Plain Text
    Duration : 1h 37mn
    Bit rate : 51 bps
    Count of elements : 1251
    Stream size : 37.0 KiB (0%)
    Language : English
    Default : No
    Forced : No
    Menu
    00: 00: 00.000 : en: 00: 00: 00.000
    00: 10: 04.320 : en: 00: 10: 04.320
    00: 18: 01.000 : en: 00: 18: 01.000
    00: 30: 24.920 : en: 00: 30: 24.920
    00: 38: 20.840 : en: 00: 38: 20.840
    00: 49: 53.800 : en: 00: 49: 53.800
    00: 58: 29.600 : en: 00: 58: 29.600
    01: 06: 06.280 : en: 01: 06: 06.280
    01: 12: 39.640 : en: 01: 12: 39.640
    01: 21: 22.880 : en: 01: 21: 22.880
    01: 32: 28.040 : en: 01: 32: 28.040
    01: 38: 18.520 : en: 01: 38: 18.520
    Скриншоты

    Релиз подготовил: Автор релиза:

    Онлайн видео Громче, чем бомбы


    Размер скачиваемого торрента: 16.21 GB (17409827818 Bytes)

    Громче, чем бомбы/Louder Than Bombs (2015) BDRemux 1080i от ExKinoRay | iTunes
    загрузка...
    Рейтинг →
     (голосов: 1, оценка 3/5, голосовать можно 1 раз )

    Другие торренты по теме:

  • Громче, чем бомбы / Louder Than Bombs (2015) WEB-DLRip от Scarabey | Line
  • Громче, чем бомбы / Louder Than Bombs (2016)
  • Громче, чем бомбы / Louder Than Bombs (2015) BDRip 720p от AleksSin | Line
  • Громче, чем бомбы / Louder Than Bombs (2015) HDRip | D | Line
  • Громче, чем бомбы / Louder Than Bombs (2015) BDRip 720p от New-Team | iTunes


    • Комментарии (0):

      Информация

      Информация

        Посетители, находящиеся в группе Гости, не могут оставлять комментарии в данной новости.

        ↓ Меню



        ↓ Опрос

        А Вы добавили сайт в закладки?
        Да
        Не


        Top 10 за месяц (Фильмы)