.
Авторизация | Регистрация
Хочешь лучшие торренты? Добавь свой email!
Добавить
» » Дуэль / The Duel (2016) BDRip 1080p от ExKinoRay | L скачать торрент бесплатно




    Дуэль / The Duel (2016) BDRip 1080p от ExKinoRay | L скачать торрент бесплатно

    Опубликовал: Админ | Дата: 16-08-2016, 05:00 | Просмотров: 55



    Детально о кино
    Русское название: Дуэль
    Русское название в мировом прокате: The Duel
    Создали в: 2016
    Категория жанра: Драма, вестерн
    Главный режиссер: Киран Дарси-Смит

    Актеры
    Лиам Хемсворт, Эмори Коэн, Вуди Харрельсон, Алиси Брага, Уильям Сэдлер, Бенедикт Сэмюэл, Сью-Линн Ансари, Рафаэль Сбардж, Кристофер Берри, Хосе Суньига
    О фильме:
    Фильм расскажет о техасском рейнджере Дэвиде, которого заслали во фронтир с целью расследования серии убийств. На месте ему предстоит познакомиться с Авраамом — проповедником, держащим в паническом страхе всю округу.

    Снималось в: США
    Киностудия: 26 Films, Atomic Entertainment (II), Bron Capital Partners, Crystal Wealth, Lionsgate Premiere, Mandeville Films, Media House Capital
    Время просмотра: 01: 50: 09
    Перевод текста: Любительский многоголосый (закадровый) | Paradox Omskbird records
    Файл
    Кодек для видео: MPEG-4
    Качество фильма: BDRip 1080p
    Информация о видео: 1920x804, 12.3 Mbit/s, 23.976 fps
    Информация о звуке:
    Информация о звуке #01: 48 kHz, AC3, 5.1, 448 Kbps | Любительский многоголосый (закадровый) | Paradox Omskbird records |
    Информация о звуке #02: 48 kHz, DTS, 5.1, 1510 kbps | Оригинал |
    Субтитры: Английские

    MI
    General
    Unique ID : 248137709968511499734022660889105873420 (0xBAAD95A8156ADD26A37CBFFF270B3A0C)
    Complete name : G: VideoThe.Duel.2016.BDRip.1080p.ExKinoRay.mkv
    Format : Matroska
    Format version : Version 4/Version 2
    File size : 11.0 GiB
    Duration : 1h 50mn
    Overall bit rate : 14.3 Mbps
    Movie name : The.Duel.2016.BDRip.1080p.ExKinoRay
    Encoded date : UTC 2016-08-15 07: 20: 00
    Writing application : mkvmerge v8.3.0 (;Over the Horizon;) 64bit
    Writing library : libebml v1.3.1 + libmatroska v1.4.2
    Video
    ID : 1
    Format : AVC
    Format/Info : Advanced Video Codec
    Format profile : High@L4.1
    Format settings, CABAC : Yes
    Format settings, ReFrames : 5 frames
    Codec ID : V_MPEG4/ISO/AVC
    Duration : 1h 50mn
    Bit rate : 12.3 Mbps
    Width : 1 920 pixels
    Height : 804 pixels
    Display aspect ratio : 2.40: 1
    Frame rate mode : Constant
    Frame rate : 23.976 (24000/1001) fps
    Color space : YUV
    Chroma subsampling : 4: 2: 0
    Bit depth : 8 bits
    Scan type : Progressive
    Bits/(Pixel*Frame) : 0.333
    Stream size : 9.48 GiB (86%)
    Writing library : x264 core 146 r2538 121396c
    Encoding settings : cabac=1/ref=5/deblock=1: -3: -3/analyse=0x3: 0x133/me=tesa/subme=11/psy=1/psy_rd=1.05: 0.00/mixed_ref=1/me_range=32/chroma_me=1/trellis=2/8x8dct=1/cqm=0/deadzone=21, 11/fast_pskip=0/chroma_qp_offset=-2/threads=60/lookahead_threads=6/sliced_threads=0/nr=0/decimate=0/interlaced=0/bluray_compat=0/constrained_intra=0/bframes=11/b_pyramid=2/b_adapt=2/b_bias=0/direct=3/weightb=1/open_gop=0/weightp=2/keyint=240/keyint_min=23/scenecut=40/intra_refresh=0/rc_lookahead=150/rc=crf/mbtree=0/crf=15.0/qcomp=0.60/qpmin=0/qpmax=69/qpstep=4/vbv_maxrate=62500/vbv_bufsize=78125/crf_max=0.0/nal_hrd=none/filler=0/ip_ratio=1.40/pb_ratio=1.30/aq=1: 0.80/zones=0, 3024, q=40
    Language : English
    Default : Yes
    Forced : No
    Audio #1
    ID : 2
    Format : AC-3
    Format/Info : Audio Coding 3
    Mode extension : CM (complete main)
    Format settings, Endianness : Big
    Codec ID : A_AC3
    Duration : 1h 50mn
    Bit rate mode : Constant
    Bit rate : 448 Kbps
    Channel(s) : 6 channels
    Channel positions : Front: L C R, Side: L R, LFE
    Sampling rate : 48.0 KHz
    Frame rate : 31.250 fps (1536 spf)
    Compression mode : Lossy
    Stream size : 353 MiB (3%)
    Title : MVO Paradox Omskbird records
    Language : Russian
    Default : Yes
    Forced : No
    Audio #2
    ID : 3
    Format : DTS
    Format/Info : Digital Theater Systems
    Mode : 16
    Format settings, Endianness : Big
    Codec ID : A_DTS
    Duration : 1h 50mn
    Bit rate mode : Constant
    Bit rate : 1 509 Kbps
    Channel(s) : 6 channels
    Channel positions : Front: L C R, Side: L R, LFE
    Sampling rate : 48.0 KHz
    Frame rate : 93.750 fps (512 spf)
    Bit depth : 24 bits
    Compression mode : Lossy
    Stream size : 1.16 GiB (11%)
    Title : Original
    Language : English
    Default : No
    Forced : No
    Text #1
    ID : 4
    Format : UTF-8
    Codec ID : S_TEXT/UTF8
    Codec ID/Info : UTF-8 Plain Text
    Duration : 1h 41mn
    Bit rate : 37 bps
    Count of elements : 849
    Stream size : 28.2 KiB (0%)
    Title : Full
    Language : English
    Default : No
    Forced : No
    Text #2
    ID : 5
    Format : UTF-8
    Codec ID : S_TEXT/UTF8
    Codec ID/Info : UTF-8 Plain Text
    Duration : 1h 43mn
    Bit rate : 40 bps
    Count of elements : 976
    Stream size : 30.5 KiB (0%)
    Title : SDH
    Language : English
    Default : No
    Forced : No
    Menu
    00: 00: 00.000 : en: Chapter 1
    00: 06: 00.735 : en: Chapter 2
    00: 14: 12.602 : en: Chapter 3
    00: 19: 39.220 : en: Chapter 4
    00: 28: 00.888 : en: Chapter 5
    00: 33: 35.388 : en: Chapter 6
    00: 39: 02.215 : en: Chapter 7
    00: 45: 32.647 : en: Chapter 8
    00: 53: 42.386 : en: Chapter 9
    00: 59: 32.986 : en: Chapter 10
    01: 10: 34.772 : en: Chapter 11
    01: 21: 52.324 : en: Chapter 12
    01: 24: 50.210 : en: Chapter 13
    01: 29: 47.299 : en: Chapter 14
    01: 41: 19.365 : en: Chapter 15
    01: 44: 57.875 : en: Chapter 16
    Скриншоты

    Релиз подготовил: Автор релиза:
    Размер скачиваемого торрента: 10.99 GB (11800723013 Bytes)

    Дуэль/The Duel (2016) BDRip 1080p от ExKinoRay | L
    загрузка...
    Рейтинг →
     (голосов: 1, оценка 4/5, голосовать можно 1 раз )

    Другие торренты по теме:

  • Дуэль / Duel (1971) HDRip | 2xP, A
  • Дуэль / Duel (1971) BDRip 720p от NNNB | P, A скачать через торрент бесплатно
  • Дуэль / Duel (1971) BDRip от HQCLUB скачать через торрент бесплатно
  • Дуэль / Duel скачать через торрент бесплатно
  • Дуэль / Duel / 1971 / 2 х ПМ, АП (Горчаков), СТ / BDRip (1080p)
  • Дуэль / Duel (1971) BDRip-AVC от MediaClub
  • Самурай 2: Дуэль у храма / Zoku Miyamoto Musashi: Ichijji no kett / Samurai II: Duel at Ichijoji Temple (1955) BDRip 720p
  • Дуэль под солнцем / Duel in the Sun (1946) DVD-9 скачать через торрент бесплатно


    • Комментарии (0):

      Информация

      Информация

        Посетители, находящиеся в группе Гости, не могут оставлять комментарии в данной новости.

        ↓ Меню



        ↓ Опрос

        А Вы добавили сайт в закладки?
        Да
        Не


        Top 10 за месяц (Фильмы)