.
Авторизация | Регистрация
Хочешь лучшие торренты? Добавь свой email!
Добавить
» » Сомния / Before I Wake (2016) BDRip 720p от ExKinoRay | iTunes скачать торрент бесплатно




    Сомния / Before I Wake (2016) BDRip 720p от ExKinoRay | iTunes скачать торрент бесплатно

    Опубликовал: Админ | Дата: 13-08-2016, 05:00 | Просмотров: 39



    Детально о кино
    Русское название: Сомния
    Русское название в мировом прокате: Before I Wake
    Создали в: 2016
    Категория жанра: Ужасы, фэнтези, триллер, драма
    Главный режиссер: Майк Флэнеган

    Актеры
    Джейкоб Трамбле, Кейт Босворт, Томас Джейн, Скотти Томпсон, Аннабет Гиш, Дэш Майок, Джей Карнс, Кайла Дивер, Лэнс Э. Николс, Кортни Белл
    О фильме:
    У молодой пары, потерявшей маленького сына, появляется второй шанс на счастливую жизнь, когда они берут из приюта замечательного восьмилетнего Коди. По неизвестной им причине он очень боится засыпать по ночам, но вскоре оказывается, что дело в необычном даре Коди - пока он спит, его сны оживают. Каждую ночь новым родителям могут явиться либо прекрасные видения его воображения, либо леденящие душу порождения его кошмаров. И эти кошмары - смертельно опасны.

    Снималось в: США
    Киностудия: Demarest Films, Intrepid Pictures, MICA Entertainment
    Время просмотра: 01: 36: 41
    Перевод текста: Дублированный | iTunes
    Файл
    Кодек для видео: MPEG-4
    Качество фильма: BDRip 720p
    Информация о видео: 1280x534, 5863 Kbit/s, 23.976 fps
    Информация о звуке:
    Информация о звуке #01: 48 kHz, AC3, 5.1, 384 Kbps | Дублированный, iTunes |
    Информация о звуке #02: 48 kHz, AC3, 5.1, 640 kbps | Оригинал |
    Субтитры: Английские

    MI
    General
    Unique ID : 218512231348493406768597698481542288135 (0xA463ECC9F997AC37899654C995DE5307)
    Complete name : G: VideoBefore.I.Wake.2016.BDRip.720p.ExKinoRay.mkv
    Format : Matroska
    Format version : Version 4/Version 2
    File size : 4.65 GiB
    Duration : 1h 36mn
    Overall bit rate : 6 889 Kbps
    Movie name : Before.I.Wake.2016.BDRip.720p.ExKinoRay
    Encoded date : UTC 2016-08-12 17: 59: 11
    Writing application : mkvmerge v8.3.0 (;Over the Horizon;) 64bit
    Writing library : libebml v1.3.1 + libmatroska v1.4.2
    Video
    ID : 1
    Format : AVC
    Format/Info : Advanced Video Codec
    Format profile : High@L4.1
    Format settings, CABAC : Yes
    Format settings, ReFrames : 12 frames
    Codec ID : V_MPEG4/ISO/AVC
    Duration : 1h 36mn
    Bit rate : 5 863 Kbps
    Width : 1 280 pixels
    Height : 534 pixels
    Display aspect ratio : 2.40: 1
    Frame rate mode : Constant
    Frame rate : 23.976 (24000/1001) fps
    Color space : YUV
    Chroma subsampling : 4: 2: 0
    Bit depth : 8 bits
    Scan type : Progressive
    Bits/(Pixel*Frame) : 0.358
    Stream size : 3.96 GiB (85%)
    Writing library : x264 core 142 r2431+42 c69a006 tMod 8-bit@4: 2: 0 X86_64
    Encoding settings : cabac=1/ref=12/deblock=1: -2: -2/analyse=0x3: 0x113/me=umh/subme=10/psy=1/fade_compensate=0.00/psy_rd=0.90: 0.00/mixed_ref=1/me_range=48/chroma_me=1/trellis=2/8x8dct=1/cqm=0/deadzone=21, 11/fast_pskip=0/chroma_qp_offset=-2/threads=6/lookahead_threads=1/sliced_threads=0/nr=0/decimate=1/interlaced=0/bluray_compat=0/constrained_intra=0/fgo=0/bframes=8/b_pyramid=2/b_adapt=2/b_bias=0/direct=3/weightb=1/open_gop=0/weightp=2/keyint=250/keyint_min=23/scenecut=40/intra_refresh=0/rc_lookahead=120/rc=crf/mbtree=0/crf=13.2000/qcomp=0.60/qpmin=0: 0: 0/qpmax=32: 32: 32/qpstep=4/vbv_maxrate=30000/vbv_bufsize=38000/crf_max=0.0/nal_hrd=none/filler=0/ip_ratio=1.40/pb_ratio=1.30/aq=4: 0.90/aq-sensitivity=10.00/aq-factor=1.00: 1.00: 1.00/aq2=0/aq3=0
    Language : English
    Default : Yes
    Forced : No
    Color range : Limited
    Color primaries : BT.709
    Transfer characteristics : BT.709
    Matrix coefficients : BT.709
    Audio #1
    ID : 2
    Format : AC-3
    Format/Info : Audio Coding 3
    Mode extension : CM (complete main)
    Format settings, Endianness : Big
    Codec ID : A_AC3
    Duration : 1h 36mn
    Bit rate mode : Constant
    Bit rate : 384 Kbps
    Channel(s) : 6 channels
    Channel positions : Front: L C R, Side: L R, LFE
    Sampling rate : 48.0 KHz
    Frame rate : 31.250 fps (1536 spf)
    Compression mode : Lossy
    Stream size : 266 MiB (6%)
    Title : iTunes
    Language : Russian
    Default : Yes
    Forced : No
    Audio #2
    ID : 3
    Format : AC-3
    Format/Info : Audio Coding 3
    Mode extension : CM (complete main)
    Format settings, Endianness : Big
    Codec ID : A_AC3
    Duration : 1h 36mn
    Bit rate mode : Constant
    Bit rate : 640 Kbps
    Channel(s) : 6 channels
    Channel positions : Front: L C R, Side: L R, LFE
    Sampling rate : 48.0 KHz
    Frame rate : 31.250 fps (1536 spf)
    Compression mode : Lossy
    Stream size : 443 MiB (9%)
    Title : Original
    Language : English
    Default : No
    Forced : No
    Text
    ID : 4
    Format : UTF-8
    Codec ID : S_TEXT/UTF8
    Codec ID/Info : UTF-8 Plain Text
    Duration : 1h 29mn
    Bit rate : 35 bps
    Count of elements : 758
    Stream size : 23.3 KiB (0%)
    Title : Full
    Language : English
    Default : No
    Forced : No
    Menu
    00: 00: 00.000 : en: Chapter 01
    00: 02: 08.876 : en: Chapter 02
    00: 09: 05.542 : en: Chapter 03
    00: 13: 10.163 : en: Chapter 04
    00: 24: 22.710 : en: Chapter 05
    00: 30: 44.342 : en: Chapter 06
    00: 43: 21.974 : en: Chapter 07
    00: 51: 13.695 : en: Chapter 08
    01: 01: 56.211 : en: Chapter 09
    01: 11: 19.274 : en: Chapter 10
    01: 24: 52.587 : en: Chapter 11
    01: 31: 22.975 : en: Chapter 12
    01: 36: 41.753 : en: Chapter 13
    Скриншоты

    Релиз подготовил: Автор релиза:

    Онлайн видео Сомния


    Размер скачиваемого торрента: 4.65 GB (4995980348 Bytes)

    Сомния/Before I Wake (2016) BDRip 720p от ExKinoRay | iTunes
    загрузка...
    Рейтинг →
     (голосов: 1, оценка 5/5, голосовать можно 1 раз )

    Другие торренты по теме:

  • Сомния / Before I Wake (2016) WEBRip-AVC | D | звук с TS
  • Сомния / Before I Wake (2016) HDRip от Portablius | iTunes
  • Сомния / Before I Wake (2016) BDRemux 1080p от ExKinoRay | iTunes
  • Сомния / Before I Wake (2016) BDRip от ExKinoRay | iTunes
  • Сомния / Before I Wake (2016) BDRip 720p | iTunes
  • Сомния / Before I Wake (2016) HDRip от Scarabey | iTunes
  • Сомния / Before I Wake (2016) HDRip от Kaztorrents | КПК | iTunes
  • Сомния / Before I Wake (2016) BDRip HEVC 1080p | iTunes


    • Комментарии (0):

      Информация

      Информация

        Посетители, находящиеся в группе Гости, не могут оставлять комментарии в данной новости.

        ↓ Меню



        ↓ Опрос

        А Вы добавили сайт в закладки?
        Да
        Не


        Top 10 за месяц (Фильмы)