.
Авторизация | Регистрация
Хочешь лучшие торренты? Добавь свой email!
Добавить
» » Люди Икс: Апокалипсис / X-Men: Apocalypse (2016) WEBRip 1080р | D | Line скачать торрент бесплатно




    Люди Икс: Апокалипсис / X-Men: Apocalypse (2016) WEBRip 1080р | D | Line скачать торрент бесплатно

    Опубликовал: Админ | Дата: 13-08-2016, 05:00 | Просмотров: 42


    Люди Икс: Апокалипсис/X-Men: Apocalypse (2016) WEBRip 1080р

    Детально о кино
    Русское название: Люди Икс: Апокалипсис
    Русское название в мировом прокате: X-Men: Apocalypse
    Создали в: 2016
    Категория жанра: фантастика, боевик, приключения
    Главный режиссер: Брайан Сингер/Bryan Singer

    Актеры
    Джеймс МакЭвой, Майкл Фассбендер, Дженнифер Лоуренс, Николас Холт, Оскар Айзек, Роуз Бирн, Эван Питерс, Джош Хелман, Софи Тернер, Тай Шеридан

    Описание фильма
    События Дней Минувшего Будущего оказали колоссальное влияние на мир, где мутанты и люди борются за свое место под Солнцем. В это нелегкое время Людям Икс предстоит столкнуться со своим самым опасным противником — древним мутантом Апокалипсисом, существом, схватка с которым может стать последней не только для мутантов, но и в принципе для всего человечества. В поисках способа победы над неуязвимым и бессмертным монстром Людям Икс предстоит узнать больше о происхождении своего вида. Но Апокалипсис неимоверно силен, и вероятность победы все уменьшается, ведь он твердо убежден, что только сильнейшие имеют право на выживание…

    Создали в: США/20th Century Fox Film Corporation, Marvel Entertainment, TSG Entertainment... (7)
    Время просмотра: 02: 23: 58
    Перевод текста: Профессиональный (полное дублирование) | LINE
    Субтитры: Русские (форсированные), китайские (вшитые в видео), английские (вшитые в видео)
    Файл
    Качество фильма: WEBRip 1080р
    Тип видео: MKV
    Информация о видео: Н.264, 1920x792 (2.40: 1), 29.970 fps, ~3728 kbps, 0.082 bit/pixel
    Информация о звуке: AC3 Dolby Digital, 2 ch., 48 kHz, 192 kbps
    Семпл
    MediaInfo
    Общее
    Уникальный идентификатор : 231088607866836934931135883147731148772 (0xADDA0C0635A495F98186279D0FE61FE4)
    Полное имя : Ljudi.X.Apokalipsis.2016.WEBRip.1080p.RUS.AC3.mkv
    Формат : Matroska
    Версия формата : Version 4/Version 2
    Размер файла : 3, 94 Гбайт
    Продолжительность : 2 ч. 23 м.
    Общий поток : 3922 Кбит/сек
    Название фильма : Люди Икс: Апокалипсис (2016)
    Дата кодирования : UTC 2016-08-12 02: 02: 42
    Программа кодирования : mkvmerge v9.0.1 (;Obstacles;) 64bit
    Библиотека кодирования : libebml v1.3.3 + libmatroska v1.4.4
    Видео
    Идентификатор : 1
    Формат : AVC
    Формат/Информация : Advanced Video Codec
    Профиль формата : High@L4
    Параметр CABAC формата : Да
    Параметр ReFrames формата : 4 кадра
    Идентификатор кодека : V_MPEG4/ISO/AVC
    Продолжительность : 2 ч. 23 м.
    Битрейт : 3728 Кбит/сек
    Ширина : 1920 пикселей
    Высота : 792 пикселя
    Соотношение сторон : 2, 40: 1
    Режим частоты кадров : Постоянный
    Частота кадров : 29, 970 (30000/1001) кадров/сек
    Цветовое пространство : YUV
    Субдискретизация насыщенности : 4: 2: 0
    Битовая глубина : 8 бит
    Тип развёртки : Прогрессивная
    Бит/(Пиксели*Кадры) : 0.082
    Размер потока : 3, 75 Гбайт (95%)
    Заголовок : 1080p HDTC
    Библиотека кодирования : x264 core 148 r2665 a01e339
    Настройки программы : cabac=1/ref=4/deblock=1: -1: -1/analyse=0x3: 0x113/me=umh/subme=10/psy=1/psy_rd=1.00: 0.20/mixed_ref=1/me_range=32/chroma_me=1/trellis=2/8x8dct=1/cqm=0/deadzone=21, 11/fast_pskip=0/chroma_qp_offset=-3/threads=12/lookahead_threads=1/sliced_threads=0/nr=0/decimate=1/interlaced=0/bluray_compat=0/constrained_intra=0/bframes=4/b_pyramid=2/b_adapt=2/b_bias=0/direct=1/weightb=1/open_gop=0/weightp=2/keyint=300/keyint_min=30/scenecut=40/intra_refresh=0/rc_lookahead=80/rc=crf/mbtree=1/crf=23.0/qcomp=0.65/qpmin=0/qpmax=69/qpstep=4/vbv_maxrate=25000/vbv_bufsize=25080/crf_max=0.0/nal_hrd=none/filler=0/ip_ratio=1.40/aq=3: 0.90
    Язык : English
    Default : Да
    Forced : Нет
    Аудио
    Идентификатор : 2
    Формат : AC-3
    Формат/Информация : Audio Coding 3
    Расширение режима : CM (complete main)
    Параметр Endianness формата : Big
    Идентификатор кодека : A_AC3
    Продолжительность : 2 ч. 23 м.
    Вид битрейта : Постоянный
    Битрейт : 192 Кбит/сек
    Каналы : 2 канала
    Расположение каналов : Front: L R
    Частота : 48, 0 КГц
    Частота кадров : 31, 250 кадров/сек (1536 spf)
    Метод сжатия : С потерями
    Размер потока : 198 Мбайт (5%)
    Заголовок : DUB | LINE (pseudo stereo)
    Язык : Russian
    Default : Да
    Forced : Нет
    Текст
    Идентификатор : 3
    Формат : UTF-8
    Идентификатор кодека : S_TEXT/UTF8
    Идентификатор кодека/Информация : UTF-8 Plain Text
    Продолжительность : 2 ч. 21 м.
    Битрейт : 3 бит/сек
    Count of elements : 103
    Размер потока : 3, 35 Кбайт (0%)
    Заголовок : RUS FORCED SUB;s
    Язык : Russian
    Default : Да
    Forced : Нет

    Скриншоты


    Онлайн видео Люди Икс: Апокалипсис


    Размер скачиваемого торрента: 3.94 GB (4235165546 Bytes)

    Люди Икс: Апокалипсис/X-Men: Apocalypse (2016) WEBRip 1080р | D | Line
    загрузка...
    Рейтинг →
     (голосов: 1, оценка 4/5, голосовать можно 1 раз )

    Другие торренты по теме:

  • OST - Люди Икс: Апокалипсис / X-Men: Apocalypse (2016) MP3 от NNNB
  • Люди Икс: Апокалипсис / X-Men: Apocalypse (2016)
  • Люди Икс: Апокалипсис / X-Men: Apocalypse (2016) ТС | D | Line
  • Люди Икс: Апокалипсис / X-Men: Apocalypse (2016) TS | Line
  • Люди Икс: Апокалипсис / X-Men: Apocalypse (2016) WEBRip | D | Line
  • Люди Икс: Апокалипсис / X-Men: Apocalypse (2016) WEBRip 720р | D | Line
  • Люди Икс: Апокалипсис / X-Men: Apocalypse (2016) WEBRip-AVC | D | Line
  • Люди Икс: Апокалипсис / X-Men: Apocalypse (2016) HDRip от Generalfilm | КПК | iTunes


    • Комментарии (0):

      Информация

      Информация

        Посетители, находящиеся в группе Гости, не могут оставлять комментарии в данной новости.

        ↓ Меню



        ↓ Опрос

        А Вы добавили сайт в закладки?
        Да
        Не


        Top 10 за месяц (Фильмы)