.
Авторизация | Регистрация
Хочешь лучшие торренты? Добавь свой email!
Добавить
» » Преступные связи / Gang Related (1997) HDRip от Portablius | P скачать торрент бесплатно




    Преступные связи / Gang Related (1997) HDRip от Portablius | P скачать торрент бесплатно

    Опубликовал: Админ | Дата: 13-08-2016, 05:00 | Просмотров: 46



    Детально о кино
    Русское название: Преступные связи
    Русское название в мировом прокате: Gang Related
    Создали в: 1997
    Категория жанра: Боевик, триллер, драма, криминал
    Главный режиссер: Джим Кауф

    Актеры
    Тупак Шакур, Джеймс Белуши, Лила Рошон, Дэннис Куэйд, Джеймс Эрл Джонс, Дэвид Пэймер, Венди Крюсон, Гэри Коул, Терренс Карсон, Роберт ЛаСардо, Грег Камминс, Брэд Гринквист, Джеймс Хэнди, Кул Мо Ди, Перри Анзилотти, Виктор Лав, Том ’Тайни’ Листер мл., Катеро Колберт, Стив Уилкокс, Александр Фолк, Дуглас Беннетт, Дэвид Вайзенберг, Крис Хендри, Терренс Эллис, Дебора Реннард

    Сюжет фильма
    Детективы Да Винчи и Родригес, крутые уличные сыщики, под прикрытием полицейских жетонов организовали в городе мощную подпольную сеть наркоторговли. Они действуют просто: находят покупателя, проворачивают с ним сделку, а затем убивают, оставляя себе деньги и товар.После этого аферисты ищут новую жертву, списав смерть клиента на бандитские разборки. Дела идут хорошо, пока не выясняется, что один из убитых — агент комитета по борьбе с наркотиками, работавший под прикрытием. Убийц необходимо найти, и детективы рьяно берутся за дело, решив свалить ответственность за свое злодейство на единственного человека в городе, чей секрет еще страшнее, чем их собственный.И теперь, когда разоблачительные тиски правды начинают сжиматься, Да Винчи и Родригес должны пойти на самый рискованный и хитроумный обман в своей жизни.

    Снималось в: США
    Киностудия: Orion Pictures, Kouf/Bigelow Productions
    Время просмотра: 01: 51: 16
    Перевод текста: Профессиональный, многоголосый
    Субтитры: Нет
    Семпл
    Файл
    Кодек для видео: XviD
    Качество фильма: HDRip
    Информация о видео: 688x288 (2.39: 1), 23.976 fps, XviD build 73 ~800 kbps avg, 0.17 bit/pixel
    Информация о звуке: 48 kHz, MPEG Layer 3, 2 ch, ~128.00 kbps avg
    MediaInfo
    Общее
    Полное имя : Gang.Related.2007.HDRip.Portablius.avi
    Формат : AVI
    Формат/Информация : Audio Video Interleave
    Размер файла : 747 Мбайт
    Продолжительность : 1 ч. 51 м.
    Общий поток : 938 Кбит/сек
    Программа кодирования : VirtualDubMod 1.5.10.3 | www.virtualdub-fr.org || (build 2550/release)
    Библиотека кодирования : VirtualDubMod build 2550/release
    Видео
    Идентификатор : 0
    Формат : MPEG-4 Visual
    Профиль формата : Advanced Simple@L5
    Параметр BVOP формата : 1
    Параметр QPel формата : Нет
    Параметр GMC формата : Без точки перехода
    Параметр матрицы формата : Выборочная
    Идентификатор кодека : XVID
    Идентификатор кодека/Подсказка : XviD
    Продолжительность : 1 ч. 51 м.
    Битрейт : 801 Кбит/сек
    Ширина : 688 пикселей
    Высота : 288 пикселей
    Соотношение сторон : 2, 40: 1
    Частота кадров : 23, 976 (23976/1000) кадра/сек
    Цветовое пространство : YUV
    Субдискретизация насыщенности : 4: 2: 0
    Битовая глубина : 8 бит
    Тип развёртки : Прогрессивная
    Метод сжатия : С потерями
    Бит/(Пиксели*Кадры) : 0.169
    Размер потока : 638 Мбайт (85%)
    Библиотека кодирования : XviD 73
    Аудио
    Идентификатор : 1
    Формат : MPEG Audio
    Версия формата : Version 1
    Профиль формата : Layer 3
    Идентификатор кодека : 55
    Идентификатор кодека/Подсказка : MP3
    Продолжительность : 1 ч. 51 м.
    Вид битрейта : Постоянный
    Битрейт : 128 Кбит/сек
    Каналы : 2 канала
    Частота : 48, 0 КГц
    Метод сжатия : С потерями
    Размер потока : 102 Мбайт (14%)
    Выравнивание : Соединение по промежуткам
    Продолжительность промежутка : 42 мс. (1, 00 видеокадр)
    Время предзагрузки промежутка : 504 мс.
    Библиотека кодирования : LAME3.99r
    Залил: Evgen Portable

    Онлайн видео Преступные связи


    Размер скачиваемого торрента: 746.74 MB (783015936 Bytes)


    Преступные связи/Gang Related (1997) HDRip от Portablius | P
    загрузка...
    Рейтинг →
     (голосов: 1, оценка 4/5, голосовать можно 1 раз )

    Другие торренты по теме:

  • Преступные связи / Gang Related (1997) HDTVRip-AVC | L1
  • Преступные связи / Gang Related (1997) DVDRip-AVC | P, A, L1
  • Преступные связи / Gang Related (2014) WEB-DLRip | BaibaKo
  • Преступные связи / Gang Related (2014) WEB-DL 720p | BaibaKo
  • Преступные связи / Gang Related (2014) WEB-DL 1080p | BaibaKo скачать через торрент бесплатно
  • Преступные связи / Gang Related (2014) WEB-DL 1080p | BaibaKo скачать через торрент бесплатно
  • Преступные связи / Gang Related (1997) BDRip 1080p от HDReactor | P, A, L1
  • Преступные связи / Gang Related (1997) BDRip от Koenig | P, A


    • Комментарии (0):

      Информация

      Информация

        Посетители, находящиеся в группе Гости, не могут оставлять комментарии в данной новости.

        ↓ Меню



        ↓ Опрос

        А Вы добавили сайт в закладки?
        Да
        Не


        Top 10 за месяц (Фильмы)