.
Авторизация | Регистрация
Хочешь лучшие торренты? Добавь свой email!
Добавить
» » Принцесса / Princess (2014) HDTVRip 720p | L1 скачать торрент бесплатно




    Принцесса / Princess (2014) HDTVRip 720p | L1 скачать торрент бесплатно

    Опубликовал: Админ | Дата: 13-08-2016, 05:00 | Просмотров: 18



    Детально о кино
    Русское название: Принцесса
    Русское название в мировом прокате: Princess
    Создали в: 2014
    Категория жанра: драма
    Главный режиссер: Тали Шалом-Эзер

    Актеры
    Шира Хааз, Адар Зохар-Ханец, Ори Пфефер, Керен Мор

    Сюжет фильма

    Адар, 12-летняя девочка, живет в небольшой квартире вместе с матерью Альмой и молодым отчимом Михаэлем. Их семейное существование кажется очень интимным, но ролевые игры Михаэля с взрослеющей Адар начинают приобретать все более опасный характер и нарушают сложившуюся идиллию. Пытаясь разобраться в происходящем, Адар заводит дружбу с Аланом, мальчиком очень похожим на нее, и вводит его в свою семью. Алан проводит Адар через темный путь между детством и юношеством, реальностью и фантазией, который навсегда меняет правила игры в ее семье...
    Награды: Три приза Иерусалимского кинофестиваля (2014), приз кинофестиваля Мир и любовь (Швеция, 2015).

    Создали в: Израиль, Marker Films
    Время просмотра: 01: 28: 16
    Перевод текста: Любительский (одноголосый) ( Павел Морозов aka PashaUp ) (перевод: Ombranetta )
    Файл
    Качество фильма: HDTVRip 720p
    Кодек для видео: x264
    Информация о видео: 1280x720, 25.000 fps, ~2212 kbps avg, 0.096 bit/pixel
    Информация о звуке 1: 48 kHz, MPEG Layer 3, 2 ch, 320 kbps
    Информация о звуке 2: 48 kHz, Dolby AC3, 2 ch, 384 kbps
    Субтитры: Иврит (вшитые)
    MediaInfo
    General
    Complete name : Princess.2014.HDTVRip.720p.x264.mkv
    Format : Matroska
    Format version : Version 4/Version 2
    File size : 1.83 GiB
    Duration : 1h 28mn
    Overall bit rate : 2 975 Kbps
    Encoded date : UTC 2016-02-03 13: 37: 51
    Writing application : mkvmerge v8.7.0 (;All of the above;) 64bit
    Writing library : libebml v1.3.3 + libmatroska v1.4.4
    DURATION : 01: 28: 15.424000000
    NUMBER_OF_FRAMES : 165482
    NUMBER_OF_BYTES : 254180352
    _STATISTICS_WRITING_APP : mkvmerge v8.7.0 (;All of the above;) 64bit
    _STATISTICS_WRITING_DATE_UTC : 2016-02-03 13: 37: 51
    _STATISTICS_TAGS : BPS DURATION NUMBER_OF_FRAMES NUMBER_OF_BYTES
    Video
    ID : 2
    Format : AVC
    Format/Info : Advanced Video Codec
    Format profile : High@L4.0
    Format settings, CABAC : Yes
    Format settings, ReFrames : 4 frames
    Codec ID : V_MPEG4/ISO/AVC
    Duration : 1h 28mn
    Bit rate : 2 212 Kbps
    Width : 1 280 pixels
    Height : 720 pixels
    Display aspect ratio : 16: 9
    Frame rate : 25.000 fps
    Color space : YUV
    Chroma subsampling : 4: 2: 0
    Bit depth : 8 bits
    Scan type : Progressive
    Bits/(Pixel*Frame) : 0.096
    Stream size : 1.36 GiB (74%)
    Writing library : x264 core 146 r2538 121396c
    Encoding settings : cabac=1/ref=1/deblock=1: 0: 0/analyse=0x3: 0x113/me=hex/subme=2/psy=1/psy_rd=1.00: 0.00/mixed_ref=0/me_range=16/chroma_me=1/trellis=0/8x8dct=1/cqm=0/deadzone=21, 11/fast_pskip=1/chroma_qp_offset=0/threads=12/lookahead_threads=4/sliced_threads=0/nr=0/decimate=1/interlaced=0/bluray_compat=0/constrained_intra=0/bframes=3/b_pyramid=2/b_adapt=1/b_bias=0/direct=1/weightb=1/open_gop=0/weightp=1/keyint=250/keyint_min=25/scenecut=40/intra_refresh=0/rc_lookahead=10/rc=crf/mbtree=1/crf=16.0/qcomp=0.60/qpmin=0/qpmax=69/qpstep=4/vbv_maxrate=25000/vbv_bufsize=31250/crf_max=0.0/nal_hrd=none/filler=0/ip_ratio=1.40/aq=1: 1.00
    Audio #1
    ID : 1
    Format : MPEG Audio
    Format version : Version 1
    Format profile : Layer 3
    Mode : Joint stereo
    Codec ID : A_MPEG/L3
    Codec ID/Hint : MP3
    Duration : 1h 28mn
    Bit rate mode : Constant
    Bit rate : 320 Kbps
    Channel(s) : 2 channels
    Sampling rate : 48.0 KHz
    Compression mode : Lossy
    Stream size : 202 MiB (11%)
    Language : Russian
    Audio #2
    ID : 3
    Format : AC-3
    Format/Info : Audio Coding 3
    Mode extension : CM (complete main)
    Codec ID : A_AC3
    Duration : 1h 28mn
    Bit rate mode : Constant
    Bit rate : 384 Kbps
    Channel(s) : 2 channels
    Channel positions : Front: L R
    Sampling rate : 48.0 KHz
    Bit depth : 16 bits
    Compression mode : Lossy
    Stream size : 242 MiB (13%)

    Скриншоты


    Дополнительно
    HDTVRip 720p - Plutos.


    Онлайн видео Принцесса


    Размер скачиваемого торрента: 1.83 GB (1969773399 Bytes)

    Принцесса/Princess (2014) HDTVRip 720p | L1
    загрузка...
    Рейтинг →
     (голосов: 1, оценка 3/5, голосовать можно 1 раз )

    Другие торренты по теме:

  • Принцесса и лягушка / The Princess and the Frog (2009) BDRip-AVC от 0ptimus | D, P2
  • Принцесса льда / Ice Princess (2005) DVD9 от Youtracker | P | Лицензия
  • Принцесса Клевская / La princesse de Cleves / La principessa di Cleves / Princess of Cleves (1961) DVDRip-AVC от FilmoRay Sheikn | P
  • Принцесса-невеста / The Princess Bride (1987) BDRip от HQCLUB
  • Дочь Робин Гуда: Принцесса воров / Princess of Thieves (2001) BDRip от HQCLUB
  • Принцесса-лебедь / The Swan princess (1994) DVDRip-AVC от Torrent-Xzona
  • Тесто и Принцесса Яйцо / Pandane to Tamago-hime / Mr. Dough and the Egg Princess (2010) CamRip
  • Принцесса-лебедь 3: Тайна заколдованного сокровища / The Swan Princess and the Mystery of the Enchanted Treasure (1998) DVDRip-AVC от Тorren


    • Комментарии (0):

      Информация

      Информация

        Посетители, находящиеся в группе Гости, не могут оставлять комментарии в данной новости.

        ↓ Меню



        ↓ Опрос

        А Вы добавили сайт в закладки?
        Да
        Не


        Top 10 за месяц (Фильмы)