.
Авторизация | Регистрация
Хочешь лучшие торренты? Добавь свой email!
Добавить
» » Следы на снегу (1955) SATRip от New-Team скачать торрент бесплатно




    Следы на снегу (1955) SATRip от New-Team скачать торрент бесплатно

    Опубликовал: Админ | Дата: 13-08-2016, 05:00 | Просмотров: 36



    Снималось в: СССР
    Создали в: Ленфильм
    Категория жанра: боевик, криминал, приключения
    Создали в: 1955
    Время просмотра: 01: 16: 46
    Перевод текста: Не требуется
    Субтитры подготовлены: нет
    Оригинальная аудиодорожка: русский
    Главный режиссер: Адольф Бергункер

    Актеры

    Владимир Краснопольский (II), Владимир Гусев, Евгения Тэн, Петр Решетников, Константин Адашевский, Олег Жаков, Михаил Медведев...
    Полный список актёров
    Описание:
    По одноименной повести Георгия Брянцева.
    Послевоенные годы. Якут-охотник Быкадыров обнаруживает в тайге таинственные следы, ведущие в поселок, где только что совершено убийство начальника геологической экспедиции. Для расследования преступления из Москвы приезжает группа сотрудников госбезопасности. Боясь разоблачения, диверсанты покидают поселок и бегут к условленному месту. Оперативной группе удается задержать убийц и экипаж прилетевшего за ними самолета.



    Источник: DVB
    Качество фильма видео: SATRip
    Тип видео видео: AVI
    Информация о видео: 640x480 (4: 3), 25 fps, XviD ~ 1218 kbps avg, 0.159 bit/pixel
    Информация о звуке: 48 kHz, MP3 2.0, 128 kbps
    Раздача от:
    MediaInfo

    Общее
    Полное имя : Sledy.na.snegu.1955.SATRip-745_New-team_by_AVP_Studio.avi
    Формат : AVI
    Формат/Информация : Audio Video Interleave
    Размер файла : 744 Мбайт
    Продолжительность : 1 ч. 16 м.
    Общий поток : 1356 Кбит/сек
    Программа кодирования : VirtualDubMod 1.5.10.3 | www.virtualdub-fr.org || (build 2550/release)
    Библиотека кодирования : VirtualDubMod build 2550/release
    Видео
    Идентификатор : 0
    Формат : MPEG-4 Visual
    Профиль формата : Advanced Simple@L5
    Параметр BVOP формата : 1
    Параметр QPel формата : Нет
    Параметр GMC формата : Без точки перехода
    Параметр матрицы формата : Выборочная
    Идентификатор кодека : XVID
    Идентификатор кодека/Подсказка : XviD
    Продолжительность : 1 ч. 16 м.
    Битрейт : 1218 Кбит/сек
    Ширина : 640 пикселей
    Высота : 480 пикселей
    Соотношение сторон : 4: 3
    Частота кадров : 25, 000 кадров/сек
    Цветовое пространство : YUV
    Субдискретизация насыщенности : 4: 2: 0
    Битовая глубина : 8 бит
    Тип развёртки : Прогрессивная
    Метод сжатия : С потерями
    Бит/(Пиксели*Кадры) : 0.159
    Размер потока : 669 Мбайт (90%)
    Библиотека кодирования : XviD 1.2.1 (UTC 2008-12-04)
    Аудио
    Идентификатор : 1
    Формат : MPEG Audio
    Версия формата : Version 1
    Профиль формата : Layer 3
    Идентификатор кодека : 55
    Идентификатор кодека/Подсказка : MP3
    Продолжительность : 1 ч. 16 м.
    Вид битрейта : Постоянный
    Битрейт : 128 Кбит/сек
    Каналы : 2 канала
    Частота : 48, 0 КГц
    Метод сжатия : С потерями
    Размер потока : 70, 3 Мбайт (9%)
    Выравнивание : Соединение по промежуткам
    Продолжительность промежутка : 40 мс. (1, 00 видеокадр)
    Время предзагрузки промежутка : 504 мс.
    Библиотека кодирования : LAME3.99r
    Залил: AVPStudio

    Онлайн видео Следы на снегу (1955) SATRip от New


    Размер скачиваемого торрента: 744.23 MB (780380160 Bytes)


    Следы на снегу (1955) SATRip от New-Team
    загрузка...
    Рейтинг →
     (голосов: 1, оценка 5/5, голосовать можно 1 раз )

    Другие торренты по теме:

  • Следы на снегу (1955) SATRip-AVC от New-Team
  • Следы на снегу / 1955 / РУ / SATRip (AVC)


    • Комментарии (0):

      Информация

      Информация

        Посетители, находящиеся в группе Гости, не могут оставлять комментарии в данной новости.

        ↓ Меню



        ↓ Опрос

        А Вы добавили сайт в закладки?
        Да
        Не


        Top 10 за месяц (Фильмы)