.
Авторизация | Регистрация
Хочешь лучшие торренты? Добавь свой email!
Добавить
» » Обед в пятницу вечером / Friday Night Dinner (2016) HDTV 720р | NEON Studio скачать торрент бесплатно




    Обед в пятницу вечером / Friday Night Dinner (2016) HDTV 720р | NEON Studio скачать торрент бесплатно

    Опубликовал: Админ | Дата: 12-08-2016, 05:01 | Просмотров: 57



    Русское название: Обед в пятницу вечером
    Русское название в мировом прокате: Friday Night Dinner
    Создали в: 2016
    Категория жанра: комедия, ситком
    Главный режиссер: Стив Бенделак

    Актеры

    Тэмсин Грег, Саймон Бёрд, Том Розенталь, Марк Хип, Пол Риттер, Мэттью Холнесс, Фрэнсис Кука, Пол Макнелли и др.
    Описание сериала:
    Каждую пятницу двадцати-с-чем-то-летние братья Адам и Джонни Гудман возвращаются в родительский дом на семейный обед. Братьям эти еженедельные встречи представляются событием раздражающим, хоть и необходимым — необходимым, потому что их всё же накормят, а раздражающим, поскольку им предстоит провести вечер с отцом и матерью. Это не идеальные мать и отец. Это обычные мать и отец. Не считая того, что отец хлебает кетчуп из бутылки, мать одержима кулинарным шоу Мастер-шеф, а бабушка любит щеголять по дому в одном новом бикини…
    Снималось в: Великобритания
    Время просмотра: ~00: 25: 00
    Перевод текста: Любительский (двухголосый) NEON Studio
    Субтитры: Отсутствуют

    Файл
    Тип видео: MKV
    Качество фильма: HDTV (720p)
    Информация о видео: MPEG-4 AVC, ~ 3500 Кбит/с, 1280x720
    Информация о звуке: 48 kHz, AC3 Dolby Digital, 2/0 (L, R) ch, ~192 kbps
    Релиз группа:

    MediaInfo
    Формат : Matroska
    Версия формата : Version 2
    Размер файла : 635 Мбайт
    Продолжительность : 24 м.
    Общий поток : 3669 Кбит/сек
    Дата кодирования : UTC 2016-08-04 01: 04: 16
    Программа кодирования : mkvmerge v4.9.1 (;Ich will;) сборка от Jul 11 2011 23: 53: 15
    Библиотека кодирования : libebml v1.2.1 + libmatroska v1.1.1
    Видео
    Идентификатор : 1
    Формат : AVC
    Формат/Информация : Advanced Video Codec
    Профиль формата : Main@L5.1
    Параметр CABAC формата : Да
    Параметр ReFrames формата : 1 кадр
    Режим смешивания : Header stripping
    Идентификатор кодека : V_MPEG4/ISO/AVC
    Продолжительность : 24 м.
    Битрейт : 3404 Кбит/сек
    Ширина : 1280 пикселей
    Высота : 720 пикселей
    Соотношение сторон : 16: 9
    Режим частоты кадров : Постоянный
    Частота кадров : 25, 000 кадров/сек
    Цветовое пространство : YUV
    Субдискретизация насыщенности : 4: 2: 0
    Битовая глубина : 8 бит
    Тип развёртки : Прогрессивная
    Бит/(Пиксели*Кадры) : 0.148
    Размер потока : 589 Мбайт (93%)
    Default : Да
    Forced : Нет
    Аудио
    Идентификатор : 2
    Формат : AC-3
    Формат/Информация : Audio Coding 3
    Расширение режима : CM (complete main)
    Параметр Endianness формата : Big
    Режим смешивания : Header stripping
    Идентификатор кодека : A_AC3
    Продолжительность : 24 м.
    Вид битрейта : Постоянный
    Битрейт : 192 Кбит/сек
    Каналы : 2 канала
    Расположение каналов : Front: L R
    Частота : 48, 0 КГц
    Частота кадров : 31, 250 кадров/сек (1536 spf)
    Метод сжатия : С потерями
    Размер потока : 33, 2 Мбайт (5%)
    Default : Да
    Forced : Нет
    Внимание! Раздача ведётся путём добавления новых серий
    Внимание! Раздача ведётся путём добавления новых серий; при каждом добавлении создаётся новый торрент. Чтобы начать докачку новой серии, пользователям необходимо сделать следующее:
    (1) остановить скачивание,
    (2) удалить старый торрент у себя из клиента (старые серии удалять не надо),
    (3) скачать новый торрент и запустить его у себя в клиенте вместо старого, при этом указать клиенту путь в старую папку куда и должно происходить скачивание новых серий.
    Ваш клиент при этом должен произвести хеширование (проверку) старой папки (если не производит сам - помогите ему сделать это), и будет докачивать только те серии которых у вас ещё нет. Старые серии при этом не удаляются, а продолжают раздаваться!
    Eсли вы уже удалили старые серии, то предотвратить повторную закачку старых серий можно, отжав галочку в соответсвующих местах при запуске нового торрента. По возможности, желательно не удалять старые серии как можно дольше чтобы релизёр не столько продолжал раздавать старые серии, а смог сконцентрироваться на новых.
    Скриншоты

    Залил: SPARTA111

    Онлайн видео Обед в пятницу вечером


    Размер скачиваемого торрента: 1.24 GB (1330610657 Bytes)

    Обед в пятницу вечером/Friday Night Dinner (2016) HDTV 720р | NEON Studio
    загрузка...
    Рейтинг →
     (голосов: 1, оценка 3/5, голосовать можно 1 раз )

    Другие торренты по теме:

  • Обед в пятницу вечером / Пятничный ужин / Friday Night Dinner (2012) HDTVRip | DreamRecords
  • Обед в пятницу вечером / Friday Night Dinner (2016) HDTVRip | NEON Studio


    • Комментарии (0):

      Информация

      Информация

        Посетители, находящиеся в группе Гости, не могут оставлять комментарии в данной новости.

        ↓ Меню



        ↓ Опрос

        А Вы добавили сайт в закладки?
        Да
        Не


        Top 10 за месяц (Фильмы)