.
Авторизация | Регистрация
Хочешь лучшие торренты? Добавь свой email!
Добавить




В Париж! (2008) DVDRip от New-Team скачать торрент бесплатно

Опубликовал: Админ | Дата: 10-08-2016, 05:00 | Просмотров: 15



Снималось в: Россия
Создали в: ПЦ Пирамида (ООО Максимус)
Категория жанра: драма
Создали в: 2008
Время просмотра: 02: 04: 05
Перевод текста: Не требуется
Субтитры подготовлены: нет
Оригинальная аудиодорожка: русский
Главный режиссер: Сергей Крутин

Актеры

Юрий Степанов, Ярослав Жалнин, Валерия Ходос, Полина Кутепова, Георгий Дрозд, Сергей Радченко (II), Евгений Шах, Анатолий Зиновенко, Евгений Ефремов (II), Сергей Сипливый...
Полный список актёров
Описание:
Действие фильма происходит в 60-е годы прошлого века, в заштатном провинциальном городке. Иван – передовик, токарь на заводе, один растит сына Лешку. В семье возникают проблемы: у любимой женщины Ивана огромная недостача, ей грозит тюрьма. А Лешку, на глазах любимой девушки, унизили хулиганы. Батя находит нестандартный выход из этих ситуаций: он сам делает пистолет (чтобы Лешка отомстил хулиганам), потом вместе с сыном идет грабить кафе, чтобы помочь Маше покрыть недостачу. Постепенно Лешка входит во вкус, ему нравится власть над людьми, он совершает первое убийство. Вдруг Иван понимает, что он своими руками вырастил убийцу…



Источник: DVD5 R5
Качество фильма видео: DVDRip
Тип видео видео: AVI
Информация о видео: 640x352 (16: 9), 25 fps, XviD ~ 1120 kbps avg, 0.199 bit/pixel
Информация о звуке: 48 kHz, MP3 2.0, 128 kbps
Раздача от:
MediaInfo

Общее
Полное имя : V.Parizh!2008.DVDRip-1, 09_New-team_by_AVP_Studio.avi
Формат : AVI
Формат/Информация : Audio Video Interleave
Размер файла : 1, 09 Гбайт
Продолжительность : 2 ч. 4 м.
Общий поток : 1257 Кбит/сек
Программа кодирования : VirtualDubMod 1.5.10.3 | www.virtualdub-fr.org || (build 2550/release)
Библиотека кодирования : VirtualDubMod build 2550/release
Видео
Идентификатор : 0
Формат : MPEG-4 Visual
Профиль формата : Advanced Simple@L5
Параметр BVOP формата : 1
Параметр QPel формата : Нет
Параметр GMC формата : Без точки перехода
Параметр матрицы формата : Выборочная
Идентификатор кодека : XVID
Идентификатор кодека/Подсказка : XviD
Продолжительность : 2 ч. 4 м.
Битрейт : 1120 Кбит/сек
Ширина : 640 пикселей
Высота : 352 пикселя
Соотношение сторон : 16: 9
Частота кадров : 25, 000 кадров/сек
Цветовое пространство : YUV
Субдискретизация насыщенности : 4: 2: 0
Битовая глубина : 8 бит
Тип развёртки : Прогрессивная
Метод сжатия : С потерями
Бит/(Пиксели*Кадры) : 0.199
Размер потока : 994 Мбайт (89%)
Библиотека кодирования : XviD 1.2.1 (UTC 2008-12-04)
Аудио
Идентификатор : 1
Формат : MPEG Audio
Версия формата : Version 1
Профиль формата : Layer 3
Идентификатор кодека : 55
Идентификатор кодека/Подсказка : MP3
Продолжительность : 2 ч. 4 м.
Вид битрейта : Постоянный
Битрейт : 128 Кбит/сек
Каналы : 2 канала
Частота : 48, 0 КГц
Метод сжатия : С потерями
Размер потока : 114 Мбайт (10%)
Выравнивание : Соединение по промежуткам
Продолжительность промежутка : 40 мс. (1, 00 видеокадр)
Время предзагрузки промежутка : 504 мс.
Библиотека кодирования : LAME3.99r
Залил: AVPStudio

Онлайн видео В Париж! (2008) DVDRip от New


Размер скачиваемого торрента: 1.09 GB (1170155520 Bytes)


В Париж! (2008) DVDRip от New-Team
загрузка...
Рейтинг →
 (голосов: 1, оценка 4/5, голосовать можно 1 раз )

Другие торренты по теме:

  • Париж / Paris (2003) DVDRip от Youtracker | P
  • Лондон, Париж, Нью-Йорк / London Paris New York (2012) DVDRip от ICG
  • Роз, это Париж / Rose, cest Paris (2010) DVDRip | Sub
  • Миссис Харрис едет в Париж / Mrs. Arris Goes to Paris (1992) DVDRip | P2


    • Комментарии (0):

      Информация

      Информация

        Посетители, находящиеся в группе Гости, не могут оставлять комментарии в данной новости.

        ↓ Меню



        ↓ Опрос

        А Вы добавили сайт в закладки?
        Да
        Не


        Top 10 за месяц (Фильмы)