.
Авторизация | Регистрация
Хочешь лучшие торренты? Добавь свой email!
Добавить
» » Книга джунглей / The Jungle Book (2016) HDRip-AVC | D | Line скачать торрент бесплатно




    Книга джунглей / The Jungle Book (2016) HDRip-AVC | D | Line скачать торрент бесплатно

    Опубликовал: Админ | Дата: 9-08-2016, 05:01 | Просмотров: 69



    Детально о кино
    Русское название: Книга джунглей
    Русское название в мировом прокате: The Jungle Book
    Создали в: 2016
    Категория жанра: фэнтези, драма, приключения, семейный
    Главный режиссер: Джон Фавро

    Актеры
    Нил Сетхи, Билл Мюррей, Бен Кингсли, Идрис Эльба, Лупита Нионго, Скарлетт Йоханссон, Джанкарло Эспозито, Кристофер Уокен

    Сюжет фильма
    Непримиримая борьба с опасным и внушающим страх тигром Шерханом вынуждает Маугли покинуть волчью стаю и отправиться в захватывающее путешествие. На пути мальчика ждут удивительные открытия и запоминающиеся встречи с пантерой Багирой, медведем Балу, питоном Каа и другими обитателями дремучих джунглей...

    Снималось в: США/Walt Disney Pictures
    Время просмотра: 01: 45: 54
    Перевод текста: Профессиональный (полное дублирование) Line
    Файл
    Качество фильма: HDRip-AVC
    Тип видео: MKV
    Информация о видео: AVC, 2600 Kb/s, 1024x550
    Информация о звуке: Russian: AC3, 448 Kb/s (2 ch), English: AC3, 448 Kb/s (6 ch)
    Субтитры: English, German


    MediaInfo:
    Format : Matroska
    Format version : Version 4/Version 2
    File size : 2.59 GiB
    Duration : 1 h 45 min
    Overall bit rate : 3 498 kb/s
    Movie name : Rip by basma4i
    Encoded date : UTC 2016-08-07 02: 03: 10
    Writing application : mkvmerge v9.3.1 (;Mask Machine;) 64bit
    Writing library : libebml v1.3.4 + libmatroska v1.4.5/Lavf57.25.100
    Cover : Yes
    Attachments : cover.jpg
    ENCODING_INFO : MATROSKA, WEBM MKV/H264 X264 VBR-2P 2600kbps Произвольный/AC3 AC3 CBR 448kbps/DTS AC3 CBR 480kbps
    Video
    ID : 1
    Format : AVC
    Format/Info : Advanced Video Codec
    Format profile : Main@L4.1
    Format settings, CABAC : Yes
    Format settings, ReFrames : 12 frames
    Codec ID : V_MPEG4/ISO/AVC
    Duration : 1 h 45 min
    Bit rate : 2 600 kb/s
    Width : 1 024 pixels
    Height : 550 pixels
    Display aspect ratio : 1.85: 1
    Frame rate mode : Variable
    Frame rate : 23.976 FPS
    Color space : YUV
    Chroma subsampling : 4: 2: 0
    Bit depth : 8 bits
    Scan type : Progressive
    Bits/(Pixel*Frame) : 0.193
    Stream size : 1.92 GiB (74%)
    Writing library : x264 core 148 r2705M 3f5ed56
    Encoding settings : cabac=1/ref=12/deblock=1: -3: -3/analyse=0x1: 0x131/me=umh/subme=11/psy=1/psy_rd=1.00: 0.20/mixed_ref=1/me_range=48/chroma_me=1/trellis=2/8x8dct=0/cqm=0/deadzone=21, 11/fast_pskip=1/chroma_qp_offset=-3/threads=11/lookahead_threads=2/sliced_threads=0/nr=0/decimate=1/interlaced=0/bluray_compat=0/constrained_intra=0/bframes=10/b_pyramid=2/b_adapt=2/b_bias=8/direct=3/weightb=1/open_gop=0/weightp=2/keyint=230/keyint_min=23/scenecut=40/intra_refresh=0/rc_lookahead=40/rc=2pass/mbtree=1/bitrate=2600/ratetol=1.0/qcomp=0.60/qpmin=0/qpmax=69/qpstep=4/cplxblur=20.0/qblur=0.5/vbv_maxrate=50000/vbv_bufsize=62500/nal_hrd=none/filler=0/ip_ratio=1.40/aq=1: 1.00
    Language : English
    Default : Yes
    Forced : No
    ENCODING_INFO : x264 - core 148 r2705 3f5ed56 - H.264/MPEG-4 AVC codec - Copyleft 2003-2016 - http://www.videolan.org/x264.html - options: cabac=1 ref=5 deblock=1: -1: -1 analyse=0x3: 0x113 me=umh subme=7 psy=1 psy_rd=1.00: 0.00 mixed_ref=1 me_range=16 chroma_me=1 trellis=1 8x8dct=1 cqm=0 deadzone=21, 11 fast_pskip=0 chroma_qp_offset=-2 threads=18 lookahead_threads=3 sliced_threads=0 nr=0 decimate=1 interlaced=0 bluray_compat=0 constrained_intra=0 bframes=3 b_pyramid=2 b_adapt=1 b_bias=0 direct=1 weightb=1 open_gop=0 weightp=2 keyint=250 keyint_min=23 scenecut=40 intra_refresh=0 rc_lookahead=40 rc=crf mbtree=1 crf=20.0 qcomp=0.60 qpmin=0 qpmax=69 qpstep=4 ip_ratio=1.40 aq=1: 1.00
    Audio #1
    ID : 2
    Format : AC-3
    Format/Info : Audio Coding 3
    Mode extension : CM (complete main)
    Format settings, Endianness : Big
    Codec ID : A_AC3
    Duration : 1 h 45 min
    Bit rate mode : Constant
    Bit rate : 448 kb/s
    Channel(s) : 2 channels
    Channel positions : Front: L R
    Sampling rate : 48.0 kHz
    Frame rate : 31.250 FPS (1536 spf)
    Compression mode : Lossy
    Stream size : 339 MiB (13%)
    Title : Rip by basma4i
    Language : Russian
    Default : Yes
    Forced : Yes
    Audio #2
    ID : 3
    Format : AC-3
    Format/Info : Audio Coding 3
    Mode extension : CM (complete main)
    Format settings, Endianness : Big
    Codec ID : A_AC3
    Duration : 1 h 45 min
    Bit rate mode : Constant
    Bit rate : 448 kb/s
    Channel(s) : 6 channels
    Channel positions : Front: L C R, Side: L R, LFE
    Sampling rate : 48.0 kHz
    Frame rate : 31.250 FPS (1536 spf)
    Compression mode : Lossy
    Stream size : 339 MiB (13%)
    Language : English
    Default : No
    Forced : No
    Text #1
    ID : 4
    Format : UTF-8
    Codec ID : S_TEXT/UTF8
    Codec ID/Info : UTF-8 Plain Text
    Duration : 1 h 44 min
    Bit rate : 44 b/s
    Count of elements : 1218
    Stream size : 34.1 KiB (0%)
    Language : English
    Default : Yes
    Forced : No
    Text #2
    ID : 5
    Format : UTF-8
    Codec ID : S_TEXT/UTF8
    Codec ID/Info : UTF-8 Plain Text
    Duration : 1 h 44 min
    Bit rate : 41 b/s
    Count of elements : 1094
    Stream size : 31.8 KiB (0%)
    Language : German
    Default : No
    Forced : No
    Menu
    00: 00: 00.000 : : 00: 00: 00.000
    00: 00: 48.215 : : 00: 00: 48.215
    00: 05: 15.315 : : 00: 05: 15.315
    00: 09: 02.459 : : 00: 09: 02.459
    00: 12: 42.178 : : 00: 12: 42.178
    00: 16: 34.452 : : 00: 16: 34.452
    00: 21: 20.029 : : 00: 21: 20.029
    00: 27: 15.133 : : 00: 27: 15.133
    00: 35: 04.143 : : 00: 35: 04.144
    00: 43: 21.724 : : 00: 43: 21.724
    00: 48: 05.132 : : 00: 48: 05.132
    00: 53: 29.248 : : 00: 53: 29.248
    00: 58: 03.271 : : 00: 58: 03.271
    01: 05: 46.442 : : 01: 05: 46.442
    01: 10: 35.523 : : 01: 10: 35.523
    01: 17: 01.325 : : 01: 17: 01.325
    01: 20: 48.927 : : 01: 20: 48.927
    01: 24: 46.540 : : 01: 24: 46.540
    01: 30: 32.969 : : 01: 30: 32.969
    01: 35: 53.206 : : 01: 35: 53.206
    Скриншоты


    Онлайн видео Книга джунглей


    Размер скачиваемого торрента: 2.59 GB (2778755245 Bytes)

    Книга джунглей/The Jungle Book (2016) HDRip-AVC | D | Line
    загрузка...
    Рейтинг →
     (голосов: 1, оценка 4/5, голосовать можно 1 раз )

    Другие торренты по теме:

  • Книга Джунглей / The Jungle Book (1967) DVDRip
  • OST - Книга джунглей / Jungle Book (2001) MP3
  • Книга джунглей / The Jungle Book (1967) BDRip 1080p от NoLimits-Team FireBit-Films
  • Книга джунглей / The Jungle Book (1967) BDRip 1080p от FREEISLAND
  • Книга джунглей / The Jungle Book (1967) BDRip-AVC от MediaClub
  • Книга джунглей / The Jungle Book (1967) BDRip 720p от NoLimits-Team FireBit-Films
  • Книга джунглей 2 / The Jungle Book 2 (2003) BDRip от HQCLUB
  • Книга джунглей / The Jungle Book (1967) BDRip от HQCLUB


    • Комментарии (0):

      Информация

      Информация

        Посетители, находящиеся в группе Гости, не могут оставлять комментарии в данной новости.

        ↓ Меню



        ↓ Опрос

        А Вы добавили сайт в закладки?
        Да
        Не


        Top 10 за месяц (Фильмы)