.
Авторизация | Регистрация
Хочешь лучшие торренты? Добавь свой email!
Добавить
» » Книга джунглей / The Jungle Book (2016) DVDRip | Line скачать торрент бесплатно




    Книга джунглей / The Jungle Book (2016) DVDRip | Line скачать торрент бесплатно

    Опубликовал: Админ | Дата: 7-08-2016, 12:59 | Просмотров: 107



    The legend will never be the same
    Детально о кино
    Русское название: Книга джунглей
    Русское название в мировом прокате: The Jungle Book
    Создали в: 2016
    Категория жанра: Фэнтези, драма, приключения, семейный
    Главный режиссер: Джон Фавро

    Актеры
    Скарлетт Йоханссон, Идрис Эльба, Билл Мюррэй, Бен Кингсли, Кристофер Уокен, Джанкарло Эспозито, Лупита Нионго Эмджей, Энтони, Нил Сетхи, Брэндон Хеншель

    Сюжет фильма

    Непримиримая борьба с опасным и внушающим страх тигром Шерханом вынуждает Маугли покинуть волчью стаю и отправиться в захватывающее путешествие. На пути мальчика ждут удивительные открытия и запоминающиеся встречи с пантерой Багирой, медведем Балу, питоном Каа и другими обитателями дремучих джунглей.

    Снималось в: США
    Киностудия: Walt Disney Pictures
    Время просмотра: 01: 41: 33
    Перевод текста: Профессиональный (полное дублирование) Чистый звук
    Файл
    Качество фильма: DVDRip
    Кодек для видео: XviD
    Информация о видео: 720x384 (1, 85: 1), 25 fps, Xvid ~1853 kbps avg, 0.268 bit/pixel
    Информация о звуке: 48 kHz, AC3, 2 ch, ~192.00 kbps avg | русский |Профессиональный (полное дублирование) Чистый звук
    Субтитры: Отсутствуют
    Семпл
    Инфо-файл
    Общее
    Полное имя : D: TorrentsЗавершенныеKH1ga.DJuHgLeY.2O16.D.DVDRip.1.46Gb.avi
    Формат : AVI
    Формат/Информация : Audio Video Interleave
    Размер файла : 1, 46 Гбайт
    Продолжительность : 1 ч. 41 м.
    Общий поток : 2054 Кбит/сек
    Название фильма : KH1ga.DJuHgLeY.2O16.D.DVDRip.1.46Gb
    Программа кодирования : VirtualDubMod 1.5.10.2 (build 2540/release)
    Формат оригинала/Имя : Movie
    Видео
    Идентификатор : 0
    Формат : MPEG-4 Visual
    Профиль формата : Advanced Simple@L5
    Параметр BVOP формата : 2
    Параметр QPel формата : Нет
    Параметр GMC формата : Без точки перехода
    Параметр матрицы формата : Default (MPEG)
    Идентификатор кодека : XVID
    Идентификатор кодека/Подсказка : XviD
    Продолжительность : 1 ч. 41 м.
    Битрейт : 1853 Кбит/сек
    Ширина : 720 пикселей
    Высота : 384 пикселя
    Соотношение сторон : 1, 85: 1
    Частота кадров : 25, 000 кадров/сек
    Цветовое пространство : YUV
    Субдискретизация насыщенности : 4: 2: 0
    Битовая глубина : 8 бит
    Тип развёртки : Прогрессивная
    Метод сжатия : С потерями
    Бит/(Пиксели*Кадры) : 0.268
    Размер потока : 1, 31 Гбайт (90%)
    Библиотека кодирования : XviD 1.2.1 (UTC 2008-12-04)
    Аудио
    Идентификатор : 1
    Формат : AC-3
    Формат/Информация : Audio Coding 3
    Расширение режима : CM (complete main)
    Параметр Endianness формата : Big
    Идентификатор кодека : 2000
    Продолжительность : 1 ч. 41 м.
    Вид битрейта : Постоянный
    Битрейт : 192 Кбит/сек
    Каналы : 2 канала
    Расположение каналов : Front: L R
    Частота : 48, 0 КГц
    Частота кадров : 31, 250 кадров/сек (1536 spf)
    Метод сжатия : С потерями
    Размер потока : 139 Мбайт (9%)
    Выравнивание : Разделение по промежуткам
    Продолжительность промежутка : 40 мс. (1, 00 видеокадр)
    Время предзагрузки промежутка : 500 мс.
    Скриншоты

    Залил: admiralkz

    Онлайн видео Книга джунглей


    Размер скачиваемого торрента: 1.46 GB (1564659712 Bytes)

    Книга джунглей/The Jungle Book (2016) DVDRip | Line
    загрузка...
    Рейтинг →
     (голосов: 1, оценка 4/5, голосовать можно 1 раз )

    Другие торренты по теме:

  • Книга Джунглей / The Jungle Book (1967) DVDRip
  • OST - Книга джунглей / Jungle Book (2001) MP3
  • Книга джунглей / The Jungle Book (1967) BDRip 1080p от NoLimits-Team FireBit-Films
  • Книга джунглей / The Jungle Book (1967) BDRip 1080p от FREEISLAND
  • Книга джунглей / The Jungle Book (1967) BDRip-AVC от MediaClub
  • Книга джунглей / The Jungle Book (1967) BDRip 720p от NoLimits-Team FireBit-Films
  • Книга джунглей 2 / The Jungle Book 2 (2003) BDRip от HQCLUB
  • Книга джунглей / The Jungle Book (1967) BDRip от HQCLUB


    • Комментарии (0):

      Информация

      Информация

        Посетители, находящиеся в группе Гости, не могут оставлять комментарии в данной новости.

        ↓ Меню



        ↓ Опрос

        А Вы добавили сайт в закладки?
        Да
        Не


        Top 10 за месяц (Фильмы)