.
Авторизация | Регистрация
Хочешь лучшие торренты? Добавь свой email!
Добавить
» » Пришельцы 3: Взятие Бастилии / Les Visiteurs: La Rvolution (2016) HDRip-AVC | Звук с TS скачать торрент бесплатно




    Пришельцы 3: Взятие Бастилии / Les Visiteurs: La Rvolution (2016) HDRip-AVC | Звук с TS скачать торрент бесплатно

    Опубликовал: Админ | Дата: 7-08-2016, 12:59 | Просмотров: 55



    Детально о кино
    Русское название: Пришельцы 3: Взятие Бастилии
    Русское название в мировом прокате: Les Visiteurs: La R?volution
    Создали в: 2016
    Категория жанра: комедия
    Главный режиссер: Жан-Мари Пуаре

    Актеры
    Кристиан Клавье, Жан Рено, Франк Дюбоск, Карин Вьяр, Сильви Тестю, Мари-Анн Шазель, Эри Абиттан …

    Сюжет фильма
    В третьей части граф с оруженосцем отправляются в самое сложное для Франции время — период Французской революции.

    Снималось в: Франция/Canal+ fr, Gaumont, The Czech Republic State Fund for Support and Development of Cinematography
    Время просмотра: 01: 49: 29
    Перевод текста: Дубляж Информация о звуке с TS
    Файл
    Качество фильма: HDRip-AVC
    Тип видео: MKV
    Информация о видео: AVC, 2600 Kb/s, 1024x430
    Информация о звуке: Russian: AC3, 192 Kb/s (2 ch), French: AC3, 448 Kb/s (6 ch)
    Субтитры: English
    Дополнительно: Сохранены оригинальные главы (чаптеры)


    MediaInfo:
    Format : Matroska
    Format version : Version 4/Version 2
    File size : 2.48 GiB
    Duration : 1 h 49 min
    Overall bit rate : 3 243 kb/s
    Movie name : Rip by basma4i
    Writing application : XviD4PSP 7.0.281 DAILY
    Writing library : Lavf57.25.100/Lavf57.25.100
    Cover : Yes
    Attachments : cover.jpg
    ENCODING_INFO : MATROSKA, WEBM MKV/H264 X264 VBR-2P 2600kbps Произвольный/MP3 AC3 CBR 192kbps/DTS AC3 CBR 480kbps
    Video
    ID : 1
    Format : AVC
    Format/Info : Advanced Video Codec
    Format profile : Main@L4.1
    Format settings, CABAC : Yes
    Format settings, ReFrames : 12 frames
    Codec ID : V_MPEG4/ISO/AVC
    Bit rate : 2 600 kb/s
    Width : 1 024 pixels
    Height : 430 pixels
    Display aspect ratio : 2.40: 1
    Frame rate mode : Variable
    Original frame rate : 24.000 FPS
    Color space : YUV
    Chroma subsampling : 4: 2: 0
    Bit depth : 8 bits
    Scan type : Progressive
    Bits/(Pixel*Frame) : 0.246
    Writing library : x264 core 148 r2705M 3f5ed56
    Encoding settings : cabac=1/ref=12/deblock=1: -3: -3/analyse=0x1: 0x131/me=umh/subme=11/psy=1/psy_rd=1.00: 0.20/mixed_ref=1/me_range=48/chroma_me=1/trellis=2/8x8dct=0/cqm=0/deadzone=21, 11/fast_pskip=1/chroma_qp_offset=-3/threads=11/lookahead_threads=2/sliced_threads=0/nr=0/decimate=1/interlaced=0/bluray_compat=0/constrained_intra=0/bframes=10/b_pyramid=2/b_adapt=2/b_bias=8/direct=3/weightb=1/open_gop=0/weightp=2/keyint=240/keyint_min=24/scenecut=40/intra_refresh=0/rc_lookahead=40/rc=2pass/mbtree=1/bitrate=2600/ratetol=1.0/qcomp=0.60/qpmin=0/qpmax=69/qpstep=4/cplxblur=20.0/qblur=0.5/vbv_maxrate=50000/vbv_bufsize=62500/nal_hrd=none/filler=0/ip_ratio=1.40/aq=1: 1.00
    Language : English
    Default : Yes
    Forced : No
    DURATION : 01: 49: 29.672000000
    ENCODING_INFO : x264 - core 148 r2705 3f5ed56 - H.264/MPEG-4 AVC codec - Copyleft 2003-2016 - http://www.videolan.org/x264.html - options: cabac=1 ref=5 deblock=1: 0: 0 analyse=0x3: 0x113 me=umh subme=8 psy=1 psy_rd=1.00: 0.00 mixed_ref=1 me_range=16 chroma_me=1 trellis=1 8x8dct=1 cqm=0 deadzone=21, 11 fast_pskip=1 chroma_qp_offset=-2 threads=12 lookahead_threads=2 sliced_threads=0 nr=0 decimate=1 interlaced=0 bluray_compat=0 constrained_intra=0 bframes=3 b_pyramid=2 b_adapt=2 b_bias=0 direct=3 weightb=1 open_gop=0 weightp=2 keyint=250 keyint_min=24 scenecut=40 intra_refresh=0 rc_lookahead=50 rc=2pass mbtree=1 bitrate=4206 ratetol=1.0 qcomp=0.60 qpmin=0 qpmax=69 qpstep=4 cplxblur=20.0 qblur=0.5 ip_ratio=1.40 aq=1: 1.00
    Audio #1
    ID : 2
    Format : AC-3
    Format/Info : Audio Coding 3
    Mode extension : CM (complete main)
    Format settings, Endianness : Big
    Codec ID : A_AC3
    Duration : 1 h 49 min
    Bit rate mode : Constant
    Bit rate : 192 kb/s
    Channel(s) : 2 channels
    Channel positions : Front: L R
    Sampling rate : 48.0 kHz
    Frame rate : 31.250 FPS (1536 spf)
    Bit depth : 16 bits
    Compression mode : Lossy
    Stream size : 150 MiB (6%)
    Title : Russian
    Language : Russian
    Default : Yes
    Forced : No
    DURATION : 01: 49: 29.664000000
    Audio #2
    ID : 3
    Format : AC-3
    Format/Info : Audio Coding 3
    Mode extension : CM (complete main)
    Format settings, Endianness : Big
    Codec ID : A_AC3
    Duration : 1 h 49 min
    Bit rate mode : Constant
    Bit rate : 448 kb/s
    Channel(s) : 6 channels
    Channel positions : Front: L C R, Side: L R, LFE
    Sampling rate : 48.0 kHz
    Frame rate : 31.250 FPS (1536 spf)
    Bit depth : 32 bits
    Compression mode : Lossy
    Stream size : 351 MiB (14%)
    Title : French
    Default : No
    Forced : No
    DURATION : 01: 49: 29.632000000
    Text
    ID : 4
    Format : UTF-8
    Codec ID : S_TEXT/UTF8
    Codec ID/Info : UTF-8 Plain Text
    Title : French Forced
    Language : English
    Default : Yes
    Forced : Yes
    DURATION : 01: 11: 29.339000000
    Menu
    00: 00: 00.000 : : 00: 00: 00.000
    00: 11: 30.208 : : 00: 11: 30.208
    00: 18: 02.250 : : 00: 18: 02.250
    00: 27: 02.792 : : 00: 27: 02.792
    00: 36: 10.708 : : 00: 36: 10.708
    00: 40: 20.875 : : 00: 40: 20.875
    00: 52: 28.208 : : 00: 52: 28.208
    00: 57: 19.208 : : 00: 57: 19.208
    01: 07: 22.042 : : 01: 07: 22.042
    01: 23: 56.667 : : 01: 23: 56.667
    01: 36: 39.750 : : 01: 36: 39.750
    01: 44: 40.542 : : 01: 44: 40.542
    Скриншоты


    Онлайн видео Пришельцы 3: Взятие Бастилии


    Размер скачиваемого торрента: 2.48 GB (2663047426 Bytes)

    Пришельцы 3: Взятие Бастилии/Les Visiteurs: La Rvolution (2016) HDRip-AVC | Звук с TS
    загрузка...
    Рейтинг →
     (голосов: 1, оценка 3/5, голосовать можно 1 раз )

    Другие торренты по теме:

  • Пришельцы 3: Взятие Бастилии / Les Visiteurs: La Rvolution (2016) BDRip 720p | D | Звук с TS
  • Пришельцы 3: Взятие Бастилии / Les Visiteurs: La Rvolution (2016) BDRip | D | Звук с TS
  • Пришельцы 3: Взятие Бастилии / Les Visiteurs: La Rvolution (2016) WEBRip | D | Звук с TS
  • Пришельцы 3: Взятие Бастилии / Les Visiteurs: La Rvolution (2016) HDRip от GeneralFilm | Звук с TS
  • Пришельцы 3: Взятие Бастилии / Les Visiteurs: La Rvolution (2016) HDRip | L
  • Пришельцы 3: Взятие Бастилии / Les Visiteurs: La Rvolution (2016) HDRip | L
  • Пришельцы 3: Взятие Бастилии / Les Visiteurs: La Rvolution (2016) BDRip 720p | Line
  • Пришельцы 3: Взятие Бастилии / Les Visiteurs: La Rvolution (2016) BDRip 1080p | Line


    • Комментарии (0):

      Информация

      Информация

        Посетители, находящиеся в группе Гости, не могут оставлять комментарии в данной новости.

        ↓ Меню



        ↓ Опрос

        А Вы добавили сайт в закладки?
        Да
        Не


        Top 10 за месяц (Фильмы)