.
Авторизация | Регистрация
Хочешь лучшие торренты? Добавь свой email!
Добавить
» » Принцесса на горошине / Die Prinzessin auf der Erbse (2010) HDTV 1080i MediaClub | P скачать торрент бесплатно




    Принцесса на горошине / Die Prinzessin auf der Erbse (2010) HDTV 1080i MediaClub | P скачать торрент бесплатно

    Опубликовал: Админ | Дата: 6-08-2016, 05:00 | Просмотров: 95



    Детально о кино
    Русское название: Принцесса на горошине
    Русское название в мировом прокате: Die Prinzessin auf der Erbse
    Создали в: 2010
    Категория жанра: Сказка, семейный, детский, экранизация
    Главный режиссер: Бодо Фюрнайзен

    Актеры
    Рик Клостер, Роберт Гвиздек, Айрис Бербен, Михаэль Гвиздек, Давид К. Буннерс, Рената Рихтер, Ульрих Виггерс, Томас Арнольд, Питер Циммерман, Альфонс Еше

    Сюжет фильма

    Экранизация сказки Ганса Христиана Андерсена. Королевству грозит катастрофа: жадная и нечестная на руку сестра короля вознамерилась унаследовать трон. Согласно старинному договору, король в свой семидесятый день рождения должен уйти в отставку, чтобы освободить трон для своего сына. Однако для того, чтобы стать королём, молодой принц должен жениться в день своей коронации. До дня рождения короля осталось не так много времени, а принц, который хочет жениться только по любви, ещё не определился с выбором невесты…

    Снималось в: Германия
    Киностудия: ANTAEUS Film- und Fernsehproduktionsgesellschaft mbH, Rundfunk Berlin-Brandenburg (RBB)
    Время просмотра: 00: 58: 29
    Перевод текста: Профессиональный многоголосый
    Файл
    Кодек для видео: h.264
    Качество фильма: HDTV 1080i
    Информация о видео: MPEG-4 AVC, ~ 9447 Кбит/с, 1920x1080, 25.000 кадр/с
    Информация о звуке:
    Русский (AC3, 6 ch, 448 Кбит/с)/Профессиональный многоголосый
    Русский (MP2, 2 ch, 192 Кбит/с)/Профессиональный многоголосый
    Семпл
    О релизе
    Автор релиза - Silverok, первоисточник - Кинопоказ HD2

    MI
    Общее
    Идентификатор : 1 (0x1)
    Полное имя : D: uTorrentPrintsessa.na.goroshine.2010.HDTV.1080i.MediaClub.ts
    Формат : MPEG-TS
    Размер файла : 4, 34 Гбайт
    Продолжительность : 58 м.
    Режим общего битрейта : Переменный
    Общий поток : 10, 6 Мбит/сек
    Видео
    Идентификатор : 3031 (0xBD7)
    Идентификатор меню : 1234 (0x4D2)
    Формат : AVC
    Формат/Информация : Advanced Video Codec
    Профиль формата : Main@L4
    Параметр CABAC формата : Да
    Параметр ReFrames формата : 4 кадра
    Параметр GOP формата : M=1, N=32
    Идентификатор кодека : 27
    Продолжительность : 58 м.
    Битрейт : 9447 Кбит/сек
    Ширина : 1920 пикселей
    Высота : 1080 пикселей
    Соотношение сторон : 16: 9
    Частота кадров : 25, 000 кадров/сек
    Цветовое пространство : YUV
    Субдискретизация насыщенности : 4: 2: 0
    Битовая глубина : 8 бит
    Тип развёртки : Чересстрочная
    Метод сохранения типа развёртки : Раздельные поля
    Порядок развёртки : Верхнее поле первое
    Бит/(Пиксели*Кадры) : 0.182
    Размер потока : 3, 86 Гбайт (89%)
    Цветовой диапазон : Limited
    Основные цвета : BT.709
    Характеристики трансфера : BT.709
    Коэффициенты матрицы : BT.709
    Аудио #1
    Идентификатор : 3032 (0xBD8)
    Идентификатор меню : 1234 (0x4D2)
    Формат : AC-3
    Формат/Информация : Audio Coding 3
    Расширение режима : CM (complete main)
    Параметр Endianness формата : Big
    Идентификатор кодека : 6
    Продолжительность : 58 м.
    Вид битрейта : Постоянный
    Битрейт : 448 Кбит/сек
    Каналы : 6 каналов
    Расположение каналов : Front: L C R, Side: L R, LFE
    Частота : 48, 0 КГц
    Частота кадров : 31, 250 кадров/сек (1536 spf)
    Метод сжатия : С потерями
    Размер потока : 187 Мбайт (4%)
    Язык : Russian
    Аудио #2
    Идентификатор : 3033 (0xBD9)
    Идентификатор меню : 1234 (0x4D2)
    Формат : MPEG Audio
    Версия формата : Version 1
    Профиль формата : Layer 2
    Идентификатор кодека : 3
    Продолжительность : 58 м.
    Вид битрейта : Постоянный
    Битрейт : 192 Кбит/сек
    Каналы : 2 канала
    Частота : 48, 0 КГц
    Метод сжатия : С потерями
    Размер потока : 80, 3 Мбайт (2%)
    Язык : Russian

    Скриншоты

    Релиз подготовил: | Silverok
    Залил: silverina64

    Онлайн видео Принцесса на горошине


    Размер скачиваемого торрента: 4.34 GB (4658641692 Bytes)

    Принцесса на горошине/Die Prinzessin auf der Erbse (2010) HDTV 1080i MediaClub | P
    загрузка...
    Рейтинг →
     (голосов: 1, оценка 3/5, голосовать можно 1 раз )

    Другие торренты по теме:

  • Принцесса на горошине


    • Комментарии (0):

      Информация

      Информация

        Посетители, находящиеся в группе Гости, не могут оставлять комментарии в данной новости.

        ↓ Меню



        ↓ Опрос

        А Вы добавили сайт в закладки?
        Да
        Не


        Top 10 за месяц (Фильмы)