.
Авторизация | Регистрация
Хочешь лучшие торренты? Добавь свой email!
Добавить
» » Простые люди / Simple Men (1992) BDRip 1080p | P, P2 скачать торрент бесплатно




    Простые люди / Simple Men (1992) BDRip 1080p | P, P2 скачать торрент бесплатно

    Опубликовал: Админ | Дата: 5-08-2016, 05:01 | Просмотров: 76



    Детально о кино
    Русское название: Простые люди
    Русское название в мировом прокате: Simple Men
    Создали в: 1992
    Категория жанра: драма, мелодрама, криминал
    Главный режиссер: Хэл Хартли

    Актеры
    Роберт Джон Бёрк, Билл Сейдж, Карен Сайлас, Элина Ловенсон, Мартин Донован, Марк Чандлер Бэйли, Крис Кук, Джеффри Ховард, Холли Мари Комбс, Джо Стивенс

    Сюжет фильма

    Совершенно безобидный Дэннис и его столь же опасный брат Билл решают проведать своего отца, который отбывает срок за то, что стал революционером и пытался взорвать Пентагон. Но это будет не так-то просто: папаша ударился в бега, и теперь братьям придется искать его наперегонки с полицией.
    Заодно Билл намерен мстить женщинам, от которых у него по жизни сплошные проблемы. Справятся ли Билл и Дэннис с самой важной миссией в своей жизни, или на пути, который они выбрали, их ждет пара извилистых поворотов?

    Снималось в: Италия, Великобритания, США
    Киностудия: American Playhouse, Channel Four Films, Fine Line Features, True Fiction Pictures, Zenith Entertainment
    Время просмотра: 01: 44: 58
    Перевод текста: Профессиональный (многоголосый, закадровый) R5/DVD Магия + Профессиональный (двухголосый, закадровый) студия Elrom
    Файл
    Тип видео: Matroska
    Информация о видео: 1920х1080 at 23.976 fps, x264@L4.1, ~9179 kbps avg
    Информация о звуке#1: Russian: 48 kHz, AC3 Dolby Digital, 2/0 (L, R) ch, ~192.00 kbps avg |Многоголосый закадровый, R5/DVD Магия|
    Информация о звуке#2: Russian: 48 kHz, AC3 Dolby Digital, 2/0 (L, R) ch, ~192.00 kbps avg |Двухголосый закадровый, студия Elrom|
    Информация о звуке#3: English: 48 kHz, AC3 Dolby Digital, 2/0 (L, R) ch, ~192.00 kbps avg
    Субтитры: Russian, English, French, Spanish, Portuguese, Hebrew
    ***Сохранены оригинальные главы как на Blu-ray.
    ***Релиз - whalekilla.
    MI
    Общее
    Уникальный идентификатор : 246437078296458738191898299667125140107 (0xB9660E0AA3B32E4FA3F1519F27B47A8B)
    Полное имя : Simple.Men.1992.BDRip.(1080p).mkv
    Формат : Matroska
    Версия формата : Version 4/Version 2
    Размер файла : 7, 15 Гбайт
    Продолжительность : 1 ч. 44 м.
    Общий поток : 9751 Кбит/сек
    Название фильма : Simple Men (1992)
    Дата кодирования : UTC 2016-08-02 16: 34: 09
    Программа кодирования : mkvmerge v6.9.1 (;Blue Panther;) 64bit built on Apr 18 2014 18: 23: 38
    Библиотека кодирования : libebml v1.3.0 + libmatroska v1.4.1
    Видео
    Идентификатор : 1
    Формат : AVC
    Формат/Информация : Advanced Video Codec
    Профиль формата : High@L4.1
    Параметр CABAC формата : Да
    Параметр ReFrames формата : 4 кадра
    Идентификатор кодека : V_MPEG4/ISO/AVC
    Продолжительность : 1 ч. 44 м.
    Битрейт : 9179 Кбит/сек
    Ширина : 1920 пикселей
    Высота : 1080 пикселей
    Соотношение сторон : 16: 9
    Режим частоты кадров : Постоянный
    Частота кадров : 23, 976 кадра/сек
    Цветовое пространство : YUV
    Субдискретизация насыщенности : 4: 2: 0
    Битовая глубина : 8 бит
    Тип развёртки : Прогрессивная
    Бит/(Пиксели*Кадры) : 0.185
    Размер потока : 6, 59 Гбайт (92%)
    Заголовок : Simple Men (1992)
    Библиотека кодирования : x264 core 130 r2273 b3065e6
    Настройки программы : cabac=1/ref=4/deblock=1: -3: -3/analyse=0x3: 0x133/me=umh/subme=11/psy=1/psy_rd=1.00: 0.10/mixed_ref=1/me_range=32/chroma_me=1/trellis=2/8x8dct=1/cqm=0/deadzone=21, 11/fast_pskip=1/chroma_qp_offset=-3/threads=6/lookahead_threads=1/sliced_threads=0/nr=0/decimate=1/interlaced=0/bluray_compat=0/constrained_intra=0/bframes=3/b_pyramid=2/b_adapt=2/b_bias=0/direct=3/weightb=1/open_gop=0/weightp=2/keyint=250/keyint_min=23/scenecut=40/intra_refresh=0/rc_lookahead=60/rc=2pass/mbtree=1/bitrate=9179/ratetol=1.0/qcomp=0.60/qpmin=0/qpmax=69/qpstep=4/cplxblur=20.0/qblur=0.5/ip_ratio=1.40/aq=1: 1.00
    Язык : English
    Default : Да
    Forced : Нет
    Аудио #1
    Идентификатор : 2
    Формат : AC-3
    Формат/Информация : Audio Coding 3
    Расширение режима : CM (complete main)
    Параметр Endianness формата : Big
    Идентификатор кодека : A_AC3
    Продолжительность : 1 ч. 44 м.
    Вид битрейта : Постоянный
    Битрейт : 192 Кбит/сек
    Каналы : 2 канала
    Расположение каналов : Front: L R
    Частота : 48, 0 КГц
    Метод сжатия : С потерями
    Размер потока : 144 Мбайт (2%)
    Заголовок : AC3, 2 ch, 192 Kbps, MVO
    Язык : Russian
    Default : Да
    Forced : Нет
    Аудио #2
    Идентификатор : 3
    Формат : AC-3
    Формат/Информация : Audio Coding 3
    Расширение режима : CM (complete main)
    Параметр Endianness формата : Big
    Идентификатор кодека : A_AC3
    Продолжительность : 1 ч. 44 м.
    Вид битрейта : Постоянный
    Битрейт : 192 Кбит/сек
    Каналы : 2 канала
    Расположение каналов : Front: L R
    Частота : 48, 0 КГц
    Метод сжатия : С потерями
    Размер потока : 144 Мбайт (2%)
    Заголовок : AC3, 2 ch, 192 Kbps, DVO, ;Elrom;
    Язык : Russian
    Default : Нет
    Forced : Нет
    Аудио #3
    Идентификатор : 4
    Формат : AC-3
    Формат/Информация : Audio Coding 3
    Расширение режима : CM (complete main)
    Параметр Endianness формата : Big
    Идентификатор кодека : A_AC3
    Продолжительность : 1 ч. 44 м.
    Вид битрейта : Постоянный
    Битрейт : 192 Кбит/сек
    Каналы : 2 канала
    Расположение каналов : Front: L R
    Частота : 48, 0 КГц
    Метод сжатия : С потерями
    Размер потока : 144 Мбайт (2%)
    Заголовок : AC3, 2 ch, 192 Kbps, Original
    Язык : English
    Default : Нет
    Forced : Нет
    Текст #1
    Идентификатор : 5
    Формат : UTF-8
    Идентификатор кодека : S_TEXT/UTF8
    Идентификатор кодека/Информация : UTF-8 Plain Text
    Язык : Russian
    Default : Нет
    Forced : Нет
    Текст #2
    Идентификатор : 6
    Формат : UTF-8
    Идентификатор кодека : S_TEXT/UTF8
    Идентификатор кодека/Информация : UTF-8 Plain Text
    Язык : English
    Default : Нет
    Forced : Нет
    Текст #3
    Идентификатор : 7
    Формат : UTF-8
    Идентификатор кодека : S_TEXT/UTF8
    Идентификатор кодека/Информация : UTF-8 Plain Text
    Язык : French
    Default : Нет
    Forced : Нет
    Текст #4
    Идентификатор : 8
    Формат : UTF-8
    Идентификатор кодека : S_TEXT/UTF8
    Идентификатор кодека/Информация : UTF-8 Plain Text
    Язык : Spanish
    Default : Нет
    Forced : Нет
    Текст #5
    Идентификатор : 9
    Формат : UTF-8
    Идентификатор кодека : S_TEXT/UTF8
    Идентификатор кодека/Информация : UTF-8 Plain Text
    Язык : Portuguese
    Default : Нет
    Forced : Нет
    Текст #6
    Идентификатор : 10
    Формат : UTF-8
    Идентификатор кодека : S_TEXT/UTF8
    Идентификатор кодека/Информация : UTF-8 Plain Text
    Язык : Hebrew
    Default : Нет
    Forced : Нет
    Меню
    00: 00: 00.000 : en: Chapter 01
    00: 01: 24.690 : en: Chapter 02
    00: 07: 29.380 : en: Chapter 03
    00: 18: 19.020 : en: Chapter 04
    00: 26: 38.280 : en: Chapter 05
    00: 34: 51.930 : en: Chapter 06
    00: 45: 27.650 : en: Chapter 07
    00: 59: 03.460 : en: Chapter 08
    01: 07: 36.720 : en: Chapter 09
    01: 14: 51.840 : en: Chapter 10
    01: 23: 45.980 : en: Chapter 11
    01: 41: 36.540 : en: Chapter 12
    Скриншоты


    Онлайн видео Простые люди


    Размер скачиваемого торрента: 7.15 GB (7676870389 Bytes)

    Простые люди/Simple Men (1992) BDRip 1080p | P, P2
    загрузка...
    Рейтинг →
     (голосов: 1, оценка 3/5, голосовать можно 1 раз )

    Другие торренты по теме:

  • Простые люди / Simple Men (1992) BDRip от Rulya74
  • Простые люди / Simple Men (1992) BDRip от MediaClub | P
  • Простые люди / 1945 / РУ / DVD-5


    • Комментарии (0):

      Информация

      Информация

        Посетители, находящиеся в группе Гости, не могут оставлять комментарии в данной новости.

        ↓ Меню



        ↓ Опрос

        А Вы добавили сайт в закладки?
        Да
        Не


        Top 10 за месяц (Фильмы)