.
Авторизация | Регистрация
Хочешь лучшие торренты? Добавь свой email!
Добавить
» » Варкрафт / Warcraft (2016) WEB-DL 720p от ExKinoRay | iTunes скачать торрент бесплатно




    Варкрафт / Warcraft (2016) WEB-DL 720p от ExKinoRay | iTunes скачать торрент бесплатно

    Опубликовал: Админ | Дата: 4-08-2016, 05:00 | Просмотров: 56



    Детально о кино
    Русское название: Варкрафт
    Русское название в мировом прокате: Warcraft
    Создали в: 2016
    Категория жанра: Фэнтези, боевик, приключения
    Главный режиссер: Дункан Джонс

    Актеры
    Трэвис Фиммел, Пола Пэттон, Бен Фостер, Доминик Купер, Тоби Кеббелл, Бен Шнетцер, Роберт Казински, Клэнси Браун, Дэниэл Ву, Рут Негга

    Сюжет фильма

    Веками магия и неприступные стены защищали людей от любых напастей. Но древнее зло, побежденное и забытое тысячелетия назад, пробудилось. В самом сердце королевства открылся темный портал, и раса невиданных существ наводнила земли Азерота. Так начались события, призванные навсегда изменить судьбу этого мира.

    Снималось в: США
    Киностудия: Blizzard Entertainment, Legendary Pictures, Universal Pictures
    Время просмотра: 02: 03: 06
    Перевод текста: Дублированный | iTunes
    Файл
    Кодек для видео: MPEG-4
    Качество фильма: WEB-DL 720p
    Информация о видео: 1280x524, 4016 Kbit/s, 23.976 fps
    Информация о звуке:
    Информация о звуке #01: 48 kHz, AC3, 5.1, 384 Kbps | Дублированный, iTunes |
    Информация о звуке #02: 48 kHz, AC3, 2.0, 192 kbps | Оригинал |

    MI
    General
    Unique ID : 198755702709405994328555921975891741565 (0x9586F4B8EA35E9A586B42268163C4B7D)
    Complete name : G: VideoWarcraft.2016.WEB-DL.720p.ExKinoRay.mkv
    Format : Matroska
    Format version : Version 4/Version 2
    File size : 3.95 GiB
    Duration : 2h 3mn
    Overall bit rate : 4 594 Kbps
    Movie name : Warcraft.2016.WEB-DL.720p.ExKinoRay
    Encoded date : UTC 2016-08-03 20: 41: 55
    Writing application : mkvmerge v8.3.0 (;Over the Horizon;) 64bit
    Writing library : libebml v1.3.1 + libmatroska v1.4.2
    Video
    ID : 1
    Format : AVC
    Format/Info : Advanced Video Codec
    Format profile : Main@L3.1
    Format settings, CABAC : No
    Format settings, ReFrames : 2 frames
    Codec ID : V_MPEG4/ISO/AVC
    Duration : 2h 3mn
    Bit rate : 4 016 Kbps
    Width : 1 280 pixels
    Height : 524 pixels
    Display aspect ratio : 2.40: 1
    Frame rate mode : Constant
    Frame rate : 23.976 (23976/1000) fps
    Color space : YUV
    Chroma subsampling : 4: 2: 0
    Bit depth : 8 bits
    Scan type : Progressive
    Bits/(Pixel*Frame) : 0.250
    Stream size : 3.45 GiB (87%)
    Language : English
    Default : Yes
    Forced : No
    Color range : Limited
    Color primaries : BT.709
    Transfer characteristics : BT.709
    Matrix coefficients : BT.709
    Audio #1
    ID : 2
    Format : AC-3
    Format/Info : Audio Coding 3
    Mode extension : CM (complete main)
    Format settings, Endianness : Big
    Codec ID : A_AC3
    Duration : 2h 3mn
    Bit rate mode : Constant
    Bit rate : 384 Kbps
    Channel(s) : 6 channels
    Channel positions : Front: L C R, Side: L R, LFE
    Sampling rate : 48.0 KHz
    Frame rate : 31.250 fps (1536 spf)
    Compression mode : Lossy
    Stream size : 338 MiB (8%)
    Title : DUB iTunes
    Language : Russian
    Default : Yes
    Forced : No
    Audio #2
    ID : 3
    Format : AC-3
    Format/Info : Audio Coding 3
    Mode extension : CM (complete main)
    Format settings, Endianness : Big
    Codec ID : A_AC3
    Duration : 2h 3mn
    Bit rate mode : Constant
    Bit rate : 192 Kbps
    Channel(s) : 2 channels
    Channel positions : Front: L R
    Sampling rate : 48.0 KHz
    Frame rate : 31.250 fps (1536 spf)
    Compression mode : Lossy
    Stream size : 169 MiB (4%)
    Title : Original
    Language : English
    Default : No
    Forced : No
    Menu
    00: 00: 00.000 : en: ????°???° 1
    00: 09: 27.000 : en: ????°???° 2
    00: 15: 51.000 : en: ????°???° 3
    00: 22: 38.000 : en: ????°???° 4
    00: 29: 18.000 : en: ????°???° 5
    00: 38: 44.000 : en: ????°???° 6
    00: 46: 45.000 : en: ????°???° 7
    00: 53: 04.000 : en: ????°???° 8
    00: 56: 19.000 : en: ????°???° 9
    01: 02: 45.000 : en: ????°???° 10
    01: 07: 50.000 : en: ????°???° 11
    01: 12: 26.000 : en: ????°???° 12
    01: 17: 14.000 : en: ????°???° 13
    01: 22: 47.000 : en: ????°???° 14
    01: 26: 34.000 : en: ????°???° 15
    01: 32: 31.000 : en: ????°???° 16
    01: 40: 23.000 : en: ????°???° 17
    01: 47: 38.000 : en: ????°???° 18
    01: 51: 13.000 : en: ????°???° 19
    01: 53: 59.000 : en: ????°???° 20
    Скриншоты

    Релиз подготовил: Автор релиза:

    Онлайн видео Варкрафт


    Размер скачиваемого торрента: 3.95 GB (4241776286 Bytes)

    Варкрафт/Warcraft (2016) WEB-DL 720p от ExKinoRay | iTunes
    загрузка...
    Рейтинг →
     (голосов: 1, оценка 5/5, голосовать можно 1 раз )

    Другие торренты по теме:

  • Варкрафт / Warcraft (2016) WEBRip 1080p | Трейлер#2
  • Варкрафт / Warcraft (2016)
  • Варкрафт / Warcraft (2016) CAMRip | D
  • Варкрафт / Warcraft (2016) CAMRip *Proper* | D
  • Варкрафт / Warcraft (2016) ТС | D | звук с CAMRip
  • Варкрафт / Warcraft (2016) ТС 720р | D | звук с CAMRip
  • Варкрафт / Warcraft (2016) TC 720p | Line
  • Варкрафт / Warcraft (2016) TC 1080p | Line


    • Комментарии (0):

      Информация

      Информация

        Посетители, находящиеся в группе Гости, не могут оставлять комментарии в данной новости.

        ↓ Меню



        ↓ Опрос

        А Вы добавили сайт в закладки?
        Да
        Не


        Top 10 за месяц (Фильмы)