.
Авторизация | Регистрация
Хочешь лучшие торренты? Добавь свой email!
Добавить
» » Подвиды 3: Жажда Крови / Bloodlust: Subspecies III (1994) BDRip-AVC | A скачать торрент бесплатно




    Подвиды 3: Жажда Крови / Bloodlust: Subspecies III (1994) BDRip-AVC | A скачать торрент бесплатно

    Опубликовал: Админ | Дата: 2-08-2016, 05:00 | Просмотров: 34



    Создали в: США/Castel Film Romania, Full Moon Entertainment
    Категория жанра: Ужасы, Фэнтези, Триллер
    Время просмотра: 01: 21: 40
    Перевод текста: Авторский (одноголосый, закадровый)А.Гаврилов
    Субтитры: Отсутствуют
    Главный режиссер: Тед Николау
    Актеры: Андерс Хове, Денис Дафф, Кевин Спиртас, Мелани Шетнер, Памела Гордон, Ion Haiduc, Michael Della Femina, Michael Denish

    Описание фильма

    Напрасно герои думали, что Раду можно убить простым протыканием сердца. Страшная мамулька оживляет его вновь при помощи крови Мишель, которой не удалось покинуть пристанище-склеп из-за наступившего рассвета. Раду вновь полон сил и с наступлением сумерек, прихватив маму и рыпающуюся Мишель, он направился в свой замок. Ребекка, сестра Мишель, вместе со своим другом из американского посольства Мелом и полицейским Марином, а позже и знакомый Мела, который разодет как распоследний десантник собираются на решающую битву с кровососом. Вооружившись, они попытаются предпринять очередную попытку освободить Мишель от назойливого Раду…
    Качество фильма видео: BDRip-AVC
    Информация о видео: AVC, 1024x576 (16: 9), 23.976 fps, 3 628 Kbps (0.257 bit/pixel)
    Информация о звуке: AC-3, 48.0 KHz, 2 ch, 192 Kbps, CBR (Russian)
    Mediainfo:

    Формат : Matroska
    Версия формата : Version 2
    Размер файла : 2, 18 Гбайт
    Продолжительность : 1 ч. 21 м.
    Общий поток : 3821 Кбит/сек
    Дата кодирования : UTC 2016-07-29 08: 26: 25
    Программа кодирования : mkvmerge v5.3.0 (;I could have danced;) built on Feb 9 2012 10: 38: 07
    Библиотека кодирования : libebml v1.2.3 + libmatroska v1.3.0
    Attachment : Yes
    Видео
    Идентификатор : 1
    Формат : AVC
    Формат/Информация : Advanced Video Codec
    Профиль формата : High@L4.1
    Параметр CABAC формата : Да
    Параметр ReFrames формата : 10 кадров
    Идентификатор кодека : V_MPEG4/ISO/AVC
    Продолжительность : 1 ч. 21 м.
    Битрейт : 3628 Кбит/сек
    Ширина : 1024 пикселя
    Высота : 576 пикселей
    Соотношение сторон : 16: 9
    Режим частоты кадров : Постоянный
    Частота кадров : 23, 976 кадра/сек
    Цветовое пространство : YUV
    Субдискретизация насыщенности : 4: 2: 0
    Битовая глубина : 8 бит
    Тип развёртки : Прогрессивная
    Бит/(Пиксели*Кадры) : 0.257
    Размер потока : 2, 03 Гбайт (93%)
    Библиотека кодирования : x264 core 146 r2538 121396c
    Настройки программы : cabac=1/ref=10/deblock=1: -3: -3/analyse=0x3: 0x133/me=umh/subme=10/psy=1/psy_rd=1.00: 0.15/mixed_ref=1/me_range=32/chroma_me=1/trellis=2/8x8dct=1/cqm=0/deadzone=21, 11/fast_pskip=0/chroma_qp_offset=-3/threads=12/lookahead_threads=2/sliced_threads=0/nr=0/decimate=0/interlaced=0/bluray_compat=0/constrained_intra=0/bframes=8/b_pyramid=2/b_adapt=2/b_bias=0/direct=3/weightb=1/open_gop=0/weightp=2/keyint=240/keyint_min=23/scenecut=40/intra_refresh=0/rc_lookahead=40/rc=2pass/mbtree=0/bitrate=3628/ratetol=1.0/qcomp=0.60/qpmin=0/qpmax=69/qpstep=4/cplxblur=20.0/qblur=0.5/vbv_maxrate=50000/vbv_bufsize=62500/nal_hrd=none/filler=0/ip_ratio=1.40/pb_ratio=1.30/aq=1: 0.70
    Default : Да
    Forced : Нет
    Аудио
    Идентификатор : 2
    Формат : AC-3
    Формат/Информация : Audio Coding 3
    Расширение режима : CM (complete main)
    Параметр Endianness формата : Big
    Идентификатор кодека : A_AC3
    Продолжительность : 1 ч. 21 м.
    Вид битрейта : Постоянный
    Битрейт : 192 Кбит/сек
    Каналы : 2 канала
    Расположение каналов : Front: L R
    Частота : 48, 0 КГц
    Битовая глубина : 16 бит
    Метод сжатия : С потерями
    Размер потока : 112 Мбайт (5%)
    Заголовок : Gavrilov AC3 2.0 192 kbps
    Язык : Russian
    Default : Нет
    Forced : Нет
    Меню
    00: 00: 00.000 : en: 00: 00: 00.000
    00: 04: 21.887 : en: 00: 04: 21.887
    00: 09: 46.461 : en: 00: 09: 46.461
    00: 15: 41.691 : en: 00: 15: 41.691
    00: 22: 58.877 : en: 00: 22: 58.877
    00: 28: 29.708 : en: 00: 28: 29.708
    00: 37: 20.572 : en: 00: 37: 20.572
    00: 44: 35.715 : en: 00: 44: 35.715
    00: 53: 05.891 : en: 00: 53: 05.891
    00: 59: 04.833 : en: 00: 59: 04.833
    01: 10: 24.262 : en: 01: 10: 24.262
    01: 18: 31.790 : en: 01: 18: 31.790

    Скриншоты:

    Релиз подготовил: K.E.N(NNM-CLUB)

    Онлайн видео Подвиды 3: Жажда Крови


    Размер скачиваемого торрента: 2.18 GB (2341108621 Bytes)

    Подвиды 3: Жажда Крови/Bloodlust: Subspecies III (1994) BDRip-AVC | A
    загрузка...
    Рейтинг →
     (голосов: 1, оценка 3/5, голосовать можно 1 раз )

    Другие торренты по теме:

  • Подвиды 3: Жажда крови / Bloodlust: Subspecies III (1993) DVDRip
  • Подвиды 3: Жажда крови / Bloodlust: Subspecies III (1994) BDRip 1080p | A
  • Подвиды 3: Жажда Крови / Bloodlust: Subspecies III (1994) BDRemux 1080p
  • Подвиды 3: Жажда Крови / Bloodlust: Subspecies III (1994) BDRip 720р от SuperMin | A
  • Подвиды 3: Жажда крови / Bloodlust: Subspecies III (1994) BDRip | A
  • Подвиды 3: Жажда Крови / Bloodlust: Subspecies III (1994) BDRip-AVC от k.e.n | A


    • Комментарии (0):

      Информация

      Информация

        Посетители, находящиеся в группе Гости, не могут оставлять комментарии в данной новости.

        ↓ Меню



        ↓ Опрос

        А Вы добавили сайт в закладки?
        Да
        Не


        Top 10 за месяц (Фильмы)