.
Авторизация | Регистрация
Хочешь лучшие торренты? Добавь свой email!
Добавить
» » Бронза / The Bronze (2015) BDRemux 1080p от ExKinoRay | iTunes скачать торрент бесплатно




    Бронза / The Bronze (2015) BDRemux 1080p от ExKinoRay | iTunes скачать торрент бесплатно

    Опубликовал: Админ | Дата: 1-08-2016, 05:02 | Просмотров: 132



    Детально о кино
    Русское название: Бронза
    Русское название в мировом прокате: The Bronze
    Создали в: 2015
    Категория жанра: Комедия, драма
    Главный режиссер: Брайан Бакли

    Актеры
    Мелисса Рауш, Гэри Коул, Томас Миддлдитч, Себастьян Стэн, Сесили Стронг, Хейли Лу Ричардсон, Дэйл Рауль, Крэйг Килборн, Ольга Корбут

    Сюжет фильма

    На Олимпиаде 2004 года в Риме гимнастка Хоуп Аннабель Греггори заняла третье место, хотя рассчитывала явно на большее. Спустя годы, Хоуп всё еще переживает ту неудачу. Но когда она решает стать тренером, у нее появляется шанс компенсировать свое досадное поражение много лет назад.

    Снималось в: США
    Киностудия: Duplass Brothers Productions
    Время просмотра: 01: 40: 10
    Перевод текста: Профессиональный многоголосый (закадровый) | iTunes
    Файл
    Кодек для видео: MPEG-4
    Качество фильма: BDRemux 1080p
    Информация о видео: 1920x1080, 24.9 Mbit/s, 23.976 fps
    Информация о звуке:
    Информация о звуке #01: 48 kHz, AC3, 5.1, 384 Kbps | Профессиональный многоголосый (закадровый) | iTunes |
    Информация о звуке #02: 48 kHz, DTS-HD MA, 5.1, 2134 kbps | Оригинал |
    Субтитры: Английские

    MI
    General
    Unique ID : 172164942390326857933815528251878311737 (0x8185C304D25B4A7FA55EE74B18948739)
    Complete name : G: VideoThe.Bronze.2015.MVO.BDREMUX.1080p.ExKinoRay.mkv
    Format : Matroska
    Format version : Version 4/Version 2
    File size : 19.2 GiB
    Duration : 1h 40mn
    Overall bit rate mode : Variable
    Overall bit rate : 27.4 Mbps
    Movie name : The.Bronze.2015.MVO.BDREMUX.1080p.ExKinoRay
    Encoded date : UTC 2016-08-01 00: 06: 18
    Writing application : mkvmerge v8.3.0 (;Over the Horizon;) 64bit
    Writing library : libebml v1.3.1 + libmatroska v1.4.2
    Video
    ID : 1
    Format : AVC
    Format/Info : Advanced Video Codec
    Format profile : High@L4.1
    Format settings, CABAC : Yes
    Format settings, ReFrames : 2 frames
    Format settings, GOP : M=1, N=10
    Codec ID : V_MPEG4/ISO/AVC
    Duration : 1h 40mn
    Bit rate mode : Variable
    Bit rate : 24.9 Mbps
    Width : 1 920 pixels
    Height : 1 080 pixels
    Display aspect ratio : 16: 9
    Frame rate mode : Constant
    Frame rate : 23.976 (24000/1001) fps
    Color space : YUV
    Chroma subsampling : 4: 2: 0
    Bit depth : 8 bits
    Scan type : Progressive
    Bits/(Pixel*Frame) : 0.500
    Stream size : 17.4 GiB (91%)
    Language : English
    Default : Yes
    Forced : No
    Audio #1
    ID : 2
    Format : AC-3
    Format/Info : Audio Coding 3
    Mode extension : CM (complete main)
    Format settings, Endianness : Big
    Codec ID : A_AC3
    Duration : 1h 40mn
    Bit rate mode : Constant
    Bit rate : 384 Kbps
    Channel(s) : 6 channels
    Channel positions : Front: L C R, Side: L R, LFE
    Sampling rate : 48.0 KHz
    Frame rate : 31.250 fps (1536 spf)
    Compression mode : Lossy
    Stream size : 275 MiB (1%)
    Title : MVO iTunes
    Language : Russian
    Default : Yes
    Forced : No
    Audio #2
    ID : 3
    Format : DTS
    Format/Info : Digital Theater Systems
    Format profile : MA/Core
    Mode : 16
    Format settings, Endianness : Big
    Codec ID : A_DTS
    Duration : 1h 40mn
    Bit rate mode : Variable/Constant
    Bit rate : 2 134 Kbps/1 509 Kbps
    Channel(s) : 6 channels
    Channel positions : Front: L C R, Side: L R, LFE
    Sampling rate : 48.0 KHz
    Frame rate : 93.750 fps (512 spf)
    Bit depth : 16 bits
    Compression mode : Lossless/Lossy
    Stream size : 1.49 GiB (8%)
    Title : Original
    Language : English
    Default : No
    Forced : No
    Text #1
    ID : 4
    Format : UTF-8
    Codec ID : S_TEXT/UTF8
    Codec ID/Info : UTF-8 Plain Text
    Duration : 1h 37mn
    Bit rate : 74 bps
    Count of elements : 1407
    Stream size : 53.0 KiB (0%)
    Title : Full
    Language : English
    Default : No
    Forced : No
    Text #2
    ID : 5
    Format : UTF-8
    Codec ID : S_TEXT/UTF8
    Codec ID/Info : UTF-8 Plain Text
    Duration : 1h 38mn
    Bit rate : 87 bps
    Count of elements : 1782
    Stream size : 63.0 KiB (0%)
    Title : SDH
    Language : English
    Default : No
    Forced : No
    Menu
    00: 00: 00.000 : en: Chapter 01
    00: 06: 01.278 : en: Chapter 02
    00: 09: 59.682 : en: Chapter 03
    00: 15: 20.294 : en: Chapter 04
    00: 20: 57.256 : en: Chapter 05
    00: 26: 36.303 : en: Chapter 06
    00: 31: 45.487 : en: Chapter 07
    00: 36: 00.325 : en: Chapter 08
    00: 41: 26.484 : en: Chapter 09
    00: 47: 07.033 : en: Chapter 10
    00: 53: 44.096 : en: Chapter 11
    01: 00: 50.105 : en: Chapter 12
    01: 08: 19.637 : en: Chapter 13
    01: 15: 04.500 : en: Chapter 14
    01: 23: 55.197 : en: Chapter 15
    01: 30: 50.528 : en: Chapter 16
    Скриншоты

    Релиз подготовил: Автор релиза:

    Онлайн видео Бронза


    Размер скачиваемого торрента: 19.17 GB (20582685754 Bytes)

    Бронза/The Bronze (2015) BDRemux 1080p от ExKinoRay | iTunes
    загрузка...
    Рейтинг →
     (голосов: 1, оценка 5/5, голосовать можно 1 раз )

    Другие торренты по теме:

  • Бронза / The Bronze (2015) BDRip | iTunes
  • Бронза / The Bronze (2015) BDRip 1080p от ExKinoRay | iTunes
  • Бронза / The Bronze (2015) HDRip от Kaztorrents | КПК | iTunes
  • Бронза / The Bronze (2015) BDRip 1080p | Лицензия
  • Бронза / The Bronze (2015) BDRip 720p от ExKinoRay | Лицензия


    • Комментарии (0):

      Информация

      Информация

        Посетители, находящиеся в группе Гости, не могут оставлять комментарии в данной новости.

        ↓ Меню



        ↓ Опрос

        А Вы добавили сайт в закладки?
        Да
        Не


        Top 10 за месяц (Фильмы)